<?xml version="1.0" standalone="no"?>
<!DOCTYPE svg PUBLIC "-//W3C//DTD SVG 1.1//EN" "http://www.w3.org/Graphics/SVG/1.1/DTD/svg11.dtd" >
<svg xmlns="http://www.w3.org/2000/svg" xmlns:xlink="http://www.w3.org/1999/xlink" version="1.1">
<metadata></metadata>
<defs>
<font id="klavika_boldbold_italic" horiz-adv-x="1261" >
<font-face units-per-em="2048" ascent="1638" descent="-410" />
<missing-glyph horiz-adv-x="430" />
<glyph unicode="&#xfb01;" horiz-adv-x="1288" d="M-41 -252q70 71 94 121t37 131l135 762h-143l41 235h143l27 142q16 87 39 143.5t64 97.5t103.5 58.5t155.5 17.5q157 0 355 -70l-62 -212q-62 19 -141.5 34t-114.5 15q-56 0 -78 -14.5t-30 -53.5l-29 -158h551l137 19l-180 -1016h-289l133 762h-393l-139 -795 q-20 -109 -68.5 -194t-161.5 -197z" />
<glyph unicode="&#xfb02;" horiz-adv-x="1290" d="M-41 -252q70 71 94 121t37 131l135 762h-143l41 235h143l23 131q16 89 41 147t69.5 97.5t110 56.5t162.5 17q173 0 348 -49l299 49l-254 -1446h-289l205 1174q-58 15 -148 25.5t-155 10.5q-49 0 -68.5 -14t-27.5 -53l-27 -146h258l-61 -235h-238l-139 -795 q-20 -109 -68.5 -194t-161.5 -197z" />
<glyph horiz-adv-x="0" />
<glyph horiz-adv-x="682" />
<glyph unicode=" "  horiz-adv-x="430" />
<glyph unicode="&#x09;" horiz-adv-x="430" />
<glyph unicode="&#xa0;" horiz-adv-x="430" />
<glyph unicode="!" horiz-adv-x="573" d="M47 0l59 340h295l-59 -340h-295zM197 475l2 356l100 574h287l-101 -574l-125 -356h-163z" />
<glyph unicode="&#x22;" horiz-adv-x="778" d="M172 897l88 508h195l-88 -508h-195zM541 897l88 508h194l-88 -508h-194z" />
<glyph unicode="#" horiz-adv-x="1382" d="M51 324l41 190h244l59 303h-250l39 191h250l64 315h202l-63 -315h299l63 315h203l-63 -315h233l-39 -191h-233l-60 -303h240l-41 -190h-238l-63 -324h-203l64 324h-299l-64 -324h-203l64 324h-246zM539 514h299l59 303h-299z" />
<glyph unicode="$" horiz-adv-x="1007" d="M25 47l69 238q168 -58 326 -58q71 0 108 14.5t53 44.5t27 93q10 55 10 76q0 43 -29 61t-134 45q-169 44 -225 90t-56 148q0 58 19 166q20 111 45 176t72.5 108.5t112 62t171.5 27.5l41 236h227l-41 -238q91 -8 197 -34l-57 -246q-154 35 -318 35q-91 0 -121.5 -25 t-42.5 -109q-8 -54 -8 -67q0 -40 29.5 -57.5t142.5 -47.5q165 -43 220 -91t55 -140q0 -48 -21 -174q-16 -95 -37.5 -157t-62 -114t-106.5 -81.5t-163 -40.5l-41 -236h-227l41 232q-148 12 -276 63z" />
<glyph unicode="%" horiz-adv-x="1783" d="M143 846.5q0 43.5 7 91.5l26 152q19 109 57.5 170.5t114.5 92.5t203 31q164 0 231 -82t43 -221l-24 -143q-13 -73 -34 -122.5t-61.5 -91t-109.5 -61.5t-168 -20q-75 0 -130 15.5t-86.5 43t-50 64.5t-18.5 80.5zM367 922q-9 -51 10 -71t80 -20q60 0 86 20t35 71l32 184 q8 50 -12 69t-78 19q-59 0 -86.5 -19.5t-34.5 -68.5zM555 47l567 1337l156 -65l-565 -1339zM999 182.5q0 43.5 7 91.5l26 152q14 82 38 135t67 90.5t108.5 53.5t161.5 16q164 0 231 -82t43 -221l-24 -144q-10 -58 -24.5 -99.5t-42 -80t-67 -62.5t-99.5 -38t-140 -14 q-75 0 -130 15.5t-86.5 42.5t-50 64t-18.5 80.5zM1223 258q-9 -51 10 -70.5t80 -19.5q60 0 86 20t35 70l32 184q8 50 -12 69t-78 19q-59 0 -86.5 -19.5t-34.5 -68.5z" />
<glyph unicode="&#x26;" horiz-adv-x="1478" d="M57 242q0 38 9 84l61 331q33 182 137.5 271.5t300.5 89.5q160 0 255 -69t95 -175q0 -101 -51 -176h211q116 0 193.5 29t163.5 92l102 -164q-166 -155 -420 -166q-110 -204 -280.5 -306.5t-423.5 -102.5q-169 0 -261 64t-92 198zM342 260q0 -24 14 -37.5t56 -13.5 q138 0 236.5 40.5t182.5 139.5h-245l-51 209q131 36 131 129q0 66 -105 66q-122 0 -141 -101l-72 -391q-6 -30 -6 -41z" />
<glyph unicode="'" horiz-adv-x="409" d="M172 897l88 508h195l-88 -508h-195z" />
<glyph unicode="(" horiz-adv-x="647" d="M98 377q0 174 27.5 332.5t87.5 313t165 292t249 244.5l170 -170q-119 -111 -200.5 -229t-127.5 -244t-65 -252t-19 -277q0 -119 34.5 -276.5t98.5 -305.5l-231 -118q-90 154 -139.5 344t-49.5 346z" />
<glyph unicode=")" horiz-adv-x="651" d="M-123 -143q119 111 200.5 228.5t127.5 243.5t65 252t19 277q0 119 -34.5 276.5t-98.5 305.5l231 119q90 -154 139 -344t49 -347q0 -174 -27.5 -332.5t-87 -313t-164.5 -291.5t-249 -244z" />
<glyph unicode="*" horiz-adv-x="958" d="M178 985l23 129h274l-108 242l122 65l113 -245l201 251l100 -77l-190 -236h272l-22 -129h-273l109 -233l-123 -66l-115 242l-199 -246l-100 76l182 227h-266z" />
<glyph unicode="+" horiz-adv-x="1056" d="M119 387v221h299v307h227v-307h299v-221h-299v-305h-227v305h-299z" />
<glyph unicode="," horiz-adv-x="561" d="M0 -223l158 223h-109l60 340h288l-65 -365l-228 -282z" />
<glyph unicode="-" horiz-adv-x="684" d="M70 451l43 245h520l-43 -245h-520z" />
<glyph unicode="." horiz-adv-x="565" d="M49 0l60 340h288l-59 -340h-289z" />
<glyph unicode="/" horiz-adv-x="927" d="M-41 -240l793 1624h258l-793 -1624h-258z" />
<glyph unicode="0" horiz-adv-x="1120" d="M76 270q0 40 6 80l111 633q33 189 148 274.5t366 85.5q181 0 283 -87t102 -228q0 -23 -7 -63l-108 -619q-13 -75 -35 -130.5t-61 -101.5t-95 -74.5t-136 -44t-185 -15.5q-204 0 -296.5 78t-92.5 212zM365 309q0 -46 30 -62t113 -16q68 0 106 16t55.5 47t28.5 91l99 557 q4 24 4 47q0 54 -33.5 78.5t-108.5 24.5q-94 0 -134 -36.5t-54 -119.5l-100 -563q-6 -37 -6 -64z" />
<glyph unicode="1" horiz-adv-x="790" d="M88 1096l436 227h264l-233 -1323h-289l174 989l-250 -123z" />
<glyph unicode="2" horiz-adv-x="1017" d="M10 0l43 248q191 167 353 315q142 136 227 228q28 35 41 68.5t22 90.5l6 37q9 56 -23.5 78t-123.5 22q-164 0 -330 -36l-26 233q196 59 415 59q189 0 287 -68.5t98 -195.5q0 -33 -6 -67l-8 -45q-22 -125 -36 -163q-31 -89 -136 -204q-34 -38 -82 -86q-139 -142 -272 -262 h405l-43 -252h-811z" />
<glyph unicode="3" horiz-adv-x="1001" d="M10 49l62 217q151 -47 293 -47q85 0 128 13.5t56.5 35.5t21.5 70l17 88q4 28 4 37q0 41 -27 59.5t-90 18.5h-287l43 243h279q70 0 98 27.5t39 93.5l17 99q4 24 4 32q0 44 -33.5 59t-120.5 15q-105 0 -278 -33l-23 219q185 47 369 47q383 0 383 -245q0 -18 -7 -62 l-18 -110q-7 -44 -13 -69.5t-19.5 -59.5t-32 -54.5t-50 -41t-75.5 -33.5q66 -32 97.5 -76.5t31.5 -114.5q0 -27 -7 -71l-18 -97q-13 -70 -30.5 -117t-51 -90.5t-83.5 -68t-128.5 -39t-187.5 -14.5q-86 0 -192 18.5t-171 50.5z" />
<glyph unicode="4" horiz-adv-x="1126" d="M-2 283l45 252l629 788h399l-141 -807h166l-41 -233h-166l-49 -283h-283l49 283h-608zM334 516h313l94 531z" />
<glyph unicode="5" horiz-adv-x="999" d="M18 49l64 230q193 -50 326 -50q107 0 144 28t50 101l8 50q6 37 6 49q0 50 -30 65.5t-111 20.5q-205 10 -319 10l135 770h739l-43 -250h-452l-52 -289q92 -3 155.5 -9.5t120 -22.5t89.5 -42.5t51.5 -68.5t18.5 -100q0 -18 -7 -62l-24 -137q-18 -98 -48.5 -163.5 t-87.5 -111.5t-143.5 -66.5t-212.5 -20.5q-77 0 -182.5 17.5t-194.5 51.5z" />
<glyph unicode="6" horiz-adv-x="1062" d="M76 260q0 48 10 113l90 512q19 108 45 182t66.5 129t100.5 86.5t140 46t193 14.5q173 0 332 -53l-56 -223q-140 35 -262 35q-77 0 -125 -10t-77 -34.5t-42.5 -56.5t-23.5 -86l-27 -143q116 31 238 31q148 0 219.5 -56.5t71.5 -181.5q0 -33 -11 -104l-14 -88 q-13 -80 -29.5 -134t-51 -107t-86.5 -83.5t-135.5 -49.5t-197.5 -19q-105 0 -178.5 20.5t-114 59.5t-58 87.5t-17.5 112.5zM365 309q0 -45 26.5 -63.5t95.5 -18.5q85 0 118.5 26.5t45.5 96.5l19 101q4 24 4 32q0 74 -90 74q-101 0 -187 -39l-26 -149q-6 -27 -6 -60z" />
<glyph unicode="7" horiz-adv-x="927" d="M37 0l633 1069h-549l43 254h852l-43 -246l-627 -1077h-309z" />
<glyph unicode="8" horiz-adv-x="1081" d="M57 242q0 38 9 84l18 104q14 78 61.5 134t157.5 110q-58 43 -83 86t-25 96q0 17 4 49l20 115q16 89 44 147t80.5 99t134 59t202.5 18q172 0 266 -68t94 -192q0 -29 -6 -63l-20 -115q-14 -84 -51.5 -132.5t-131.5 -98.5q76 -45 107 -89.5t31 -101.5q0 -35 -4 -53l-19 -104 q-13 -78 -34.5 -132t-57.5 -96.5t-91 -67.5t-133 -37.5t-186 -12.5q-191 0 -289 63t-98 199zM338 291q0 -44 32 -60t115 -16q97 0 135.5 25.5t49.5 89.5l12 67q4 28 4 39q0 35 -29 59t-116 60q-63 -23 -98 -39.5t-54 -36.5t-24.5 -35t-10.5 -47l-12 -67q-4 -28 -4 -39z M473 874q0 -30 23.5 -50t91.5 -48q94 34 118.5 57t32.5 76l17 99q4 20 4 30q0 38 -27 55t-90 17q-78 0 -109 -22.5t-40 -79.5l-17 -99q-4 -28 -4 -35z" />
<glyph unicode="9" horiz-adv-x="1044" d="M41 47l61 221q150 -47 267 -47q76 0 119.5 6.5t71.5 27t40.5 49.5t22.5 83l30 164q-116 -31 -237 -31q-142 0 -215.5 58.5t-73.5 185.5q0 51 8 98l15 88q9 53 18 92t23 79t32.5 68t45.5 55t62 44t81 30t105 19t132 6q369 0 369 -290q0 -45 -10 -103l-90 -512 q-17 -95 -34.5 -159t-46.5 -118.5t-66 -86.5t-94.5 -54.5t-130 -31t-173.5 -8.5q-76 0 -174 19t-158 48zM420 831q0 -38 21.5 -51.5t68.5 -13.5q100 0 186 39l29 160q6 42 6 51q0 43 -27.5 61.5t-97.5 18.5q-85 0 -118.5 -26.5t-45.5 -96.5l-18 -101q-4 -28 -4 -41z" />
<glyph unicode=":" horiz-adv-x="573" d="M57 0l60 340h289l-60 -340h-289zM162 596l59 340h289l-59 -340h-289z" />
<glyph unicode=";" horiz-adv-x="575" d="M0 -223l158 223h-109l60 340h288l-65 -365l-228 -282zM154 596l59 340h289l-60 -340h-288z" />
<glyph unicode="&#x3c;" horiz-adv-x="1144" d="M61 426v147l902 443l84 -168l-725 -348l725 -348l-84 -170z" />
<glyph unicode="=" horiz-adv-x="1067" d="M133 217v191h842v-191h-842zM133 621v190h842v-190h-842z" />
<glyph unicode="&#x3e;" horiz-adv-x="1144" d="M98 152l725 348l-725 348l84 168l901 -443v-147l-901 -444z" />
<glyph unicode="?" horiz-adv-x="989" d="M207 1380q182 45 387 45q202 0 303.5 -71t101.5 -203q0 -45 -10 -113q-10 -56 -15.5 -84t-18.5 -68t-25 -60t-40.5 -55t-57.5 -58.5t-83 -64.5t-111.5 -79.5t-148.5 -97.5l-139 209q90 60 140.5 95t93 69t59.5 49.5t31 41t16.5 39.5t7.5 48q4 28 4 39q0 43 -11.5 64.5 t-48.5 32.5t-114 11q-101 0 -292 -34zM248 0l59 340h289l-59 -340h-289z" />
<glyph unicode="@" horiz-adv-x="1474" d="M92 549q0 384 212 609.5t581 225.5q265 0 417 -135t152 -346q0 -104 -25 -191.5t-74.5 -154.5t-128 -105t-179.5 -38q-48 0 -92.5 17.5t-59.5 43.5q-66 -34 -118.5 -47.5t-117.5 -13.5q-145 0 -145 151q0 31 33 217q20 116 82 167.5t180 51.5q128 0 262 -71l-63 -363 q12 -4 28 -4q63 0 110.5 25.5t75 70.5t41 101.5t13.5 124.5q0 156 -107 245t-301 89q-179 0 -313.5 -84t-205 -231.5t-70.5 -336.5q0 -204 112.5 -312t341.5 -108q104 0 221.5 25.5t212.5 65.5l23 -158q-183 -100 -459 -100q-163 0 -286.5 42.5t-200 119.5t-114.5 179.5 t-38 227.5zM684 629q-8 -38 5 -55t52 -17q30 0 64.5 13t56.5 32l41 236q-50 20 -112 20q-69 0 -80 -72z" />
<glyph unicode="A" horiz-adv-x="1294" d="M-72 0l656 1364h411l195 -1364h-320l-28 268h-465l-123 -268h-326zM487 518h326l-57 594z" />
<glyph unicode="B" horiz-adv-x="1183" d="M41 0l240 1364h538q180 0 261 -58.5t81 -168.5q0 -33 -6 -70l-25 -139q-13 -80 -55.5 -131t-142.5 -86q78 -21 124 -76.5t46 -132.5q0 -13 -4 -45l-25 -133q-14 -76 -42 -131.5t-79 -101t-133.5 -68.5t-195.5 -23h-582zM383 242h211q81 0 128 26t58 97l15 84q4 24 4 32 q0 88 -109 88h-248zM481 801h201q126 0 143 102l21 119q4 20 4 29q0 36 -24 53.5t-78 17.5h-209z" />
<glyph unicode="C" horiz-adv-x="1085" d="M76 313q0 38 8 82l104 590q37 209 169 304t382 95q182 0 394 -59l-68 -258q-207 45 -356 45q-109 0 -160 -42.5t-70 -149.5l-84 -476q-6 -35 -6 -63q0 -69 40 -99t128 -30q176 0 354 39l11 -258q-186 -53 -412 -53q-216 0 -325 91.5t-109 241.5z" />
<glyph unicode="D" horiz-adv-x="1226" d="M41 0l242 1364h520q107 0 187 -27.5t126 -75.5t68 -106t22 -125q0 -38 -6 -76l-106 -602q-11 -62 -26 -107t-49.5 -94t-85.5 -80t-136.5 -51t-198.5 -20h-557zM389 266h209q59 0 98 10.5t61 34.5t32 51.5t18 73.5l86 492q6 30 6 55q0 58 -39.5 86.5t-132.5 28.5h-190z " />
<glyph unicode="E" horiz-adv-x="1089" d="M41 0l240 1364h858l-47 -266h-557l-46 -260h515l-48 -265h-514l-55 -307h557l-45 -266h-858z" />
<glyph unicode="F" horiz-adv-x="1052" d="M41 0l240 1364h866l-47 -266h-565l-54 -301h523l-48 -265h-522l-92 -532h-301z" />
<glyph unicode="G" horiz-adv-x="1210" d="M76 309q0 32 8 86l102 590q34 198 162 298.5t391 100.5q100 0 222 -19.5t206 -45.5l-67 -258q-81 23 -193.5 37t-197.5 14q-113 0 -164.5 -46.5t-67.5 -143.5l-84 -473q-6 -35 -6 -68q0 -66 38.5 -99.5t131.5 -33.5q97 0 201 22l67 373h283l-102 -575q-208 -88 -476 -88 q-229 0 -341.5 87t-112.5 242z" />
<glyph unicode="H" horiz-adv-x="1304" d="M41 0l240 1364h301l-97 -547h437l96 547h301l-240 -1364h-301l96 553h-436l-96 -553h-301z" />
<glyph unicode="I" horiz-adv-x="587" d="M51 0l240 1364h301l-240 -1364h-301z" />
<glyph unicode="J" horiz-adv-x="593" d="M-154 -213q115 72 155.5 114t49.5 97l242 1366h305l-250 -1413q-17 -94 -96.5 -178.5t-261.5 -202.5z" />
<glyph unicode="K" horiz-adv-x="1239" d="M41 0l240 1364h301l-240 -1364h-301zM492 696l477 668h368l-514 -668l271 -696h-330z" />
<glyph unicode="L" horiz-adv-x="1005" d="M41 0l240 1364h301l-195 -1098h547l-45 -266h-848z" />
<glyph unicode="M" horiz-adv-x="1638" d="M8 0l324 1364h303l170 -881l498 881h301l-160 -1364h-295l96 748l-340 -570h-307l-115 570l-178 -748h-297z" />
<glyph unicode="N" horiz-adv-x="1398" d="M41 0l240 1364h366l299 -989l174 989h293l-239 -1364h-371l-305 936l-162 -936h-295z" />
<glyph unicode="O" d="M76 342q0 34 6 64l98 563q17 99 56.5 172.5t108 129.5t174 84.5t247.5 28.5q117 0 210 -31.5t149.5 -84t86 -117.5t29.5 -137q0 -32 -6 -62l-98 -557q-18 -101 -57 -175t-109 -129.5t-178.5 -83t-257.5 -27.5q-116 0 -206.5 30.5t-144.5 82t-81 115t-27 134.5zM381 375 q0 -64 47 -96.5t154 -32.5q228 0 258 176l92 520q4 28 4 41q0 135 -201 135q-114 0 -178.5 -46t-79.5 -130l-92 -520q-4 -32 -4 -47z" />
<glyph unicode="P" horiz-adv-x="1212" d="M41 0l240 1364h520q217 0 325.5 -79t108.5 -228q0 -39 -12 -105l-27 -153q-18 -101 -48.5 -168t-88 -118t-149 -74t-224.5 -23h-270l-74 -416h-301zM463 676h248q99 0 136 34t52 117l19 109q6 37 6 59q0 53 -32 78t-101 25h-254z" />
<glyph unicode="Q" d="M76 342q0 34 6 64l98 563q17 99 56.5 172.5t108 129.5t174 84.5t247.5 28.5q117 0 210 -31.5t149.5 -84t86 -117.5t29.5 -137q0 -32 -6 -62l-98 -557q-18 -101 -57 -175t-109 -129.5t-178.5 -83t-257.5 -27.5q-116 0 -206.5 30.5t-144.5 82t-81 115t-27 134.5zM262 -340 l49 229q306 -12 580 -79l-57 -232q-261 58 -572 82zM381 375q0 -64 47 -96.5t154 -32.5q228 0 258 176l92 520q4 28 4 41q0 135 -201 135q-114 0 -178.5 -46t-79.5 -130l-92 -520q-4 -32 -4 -47z" />
<glyph unicode="R" horiz-adv-x="1323" d="M41 0l240 1364h522q218 0 327 -79.5t109 -231.5q0 -22 -8 -84l-29 -164q-23 -135 -80.5 -215.5t-179.5 -122.5l258 -467h-338l-239 426h-207l-74 -426h-301zM463 686h258q95 0 133.5 35.5t52.5 118.5l19 102q6 35 6 57q0 52 -35 75.5t-113 23.5h-249z" />
<glyph unicode="S" horiz-adv-x="1103" d="M29 70l65 231q116 -35 198.5 -51.5t172.5 -16.5q118 0 160 29.5t57 120.5q8 39 8 72q0 44 -38.5 65t-168.5 55q-170 43 -240.5 110t-70.5 187q0 60 16 148q15 79 32 132.5t45 96.5t62 67t89 40.5t121 22t163 5.5q79 0 194 -15t204 -38l-54 -252q-196 47 -368 47 q-110 0 -145.5 -23.5t-49.5 -105.5q-8 -62 -8 -73q0 -47 35 -65.5t166 -51.5q185 -46 254 -109.5t69 -171.5q0 -57 -16 -145q-20 -112 -50.5 -182.5t-90 -122.5t-154.5 -74t-240 -22q-88 0 -214 26.5t-203 63.5z" />
<glyph unicode="T" horiz-adv-x="1085" d="M123 1098l47 266h1040l-47 -266h-368l-193 -1098h-303l193 1098h-369z" />
<glyph unicode="U" horiz-adv-x="1273" d="M94 326q0 34 6 69l170 969h301l-163 -928q-7 -40 -7 -63q0 -65 42 -96t145 -31q118 0 172.5 44t70.5 134l166 940h301l-170 -969q-13 -74 -35 -131.5t-64 -113t-102.5 -91t-154.5 -57.5t-215 -22q-119 0 -210.5 28.5t-145.5 77.5t-80.5 109.5t-26.5 130.5z" />
<glyph unicode="V" horiz-adv-x="1216" d="M147 1364h308l98 -1104l479 1104h328l-619 -1364h-448z" />
<glyph unicode="W" horiz-adv-x="1953" d="M158 1364h295l73 -993l422 993h344l68 -993l418 993h301l-570 -1364h-385l-63 1010l-420 -1010h-375z" />
<glyph unicode="X" d="M-47 0l545 715l-271 649h314l176 -436l309 436h342l-528 -686l303 -678h-320l-190 438l-334 -438h-346z" />
<glyph unicode="Y" horiz-adv-x="1095" d="M121 1364h305l152 -631l358 631h346l-606 -971l-68 -393h-303l68 393z" />
<glyph unicode="Z" horiz-adv-x="1148" d="M74 246l723 860h-584l45 258h899l-2 -248l-727 -864h586l-45 -252h-889z" />
<glyph unicode="[" horiz-adv-x="645" d="M14 -258l332 1876h451l-41 -227h-164l-250 -1422h164l-41 -227h-451z" />
<glyph unicode="\" horiz-adv-x="927" d="M236 1384h258l219 -1624h-258z" />
<glyph unicode="]" horiz-adv-x="645" d="M-98 -258l41 227h163l250 1422h-163l40 227h451l-332 -1876h-450z" />
<glyph unicode="^" horiz-adv-x="964" d="M133 870l389 535h195l233 -578l-188 -73l-168 432l-303 -432z" />
<glyph unicode="_" horiz-adv-x="909" d="M-2 0h913v-94h-913v94z" />
<glyph unicode="`" horiz-adv-x="634" d="M231 1315l125 147q102 -105 256 -225l-108 -135q-154 100 -273 213z" />
<glyph unicode="a" horiz-adv-x="1079" d="M70 334l47 268q13 78 32.5 135t58 112.5t93.5 90t142 55.5t202 21q181 0 381 -62l-166 -954h-244l-8 86q-140 -106 -317 -106q-156 0 -204 88q-29 54 -29 141q0 56 12 125zM354 303q-6 -40 6 -57t50 -17q100 0 219 99l76 432q-49 10 -113 10q-44 0 -75.5 -9.5t-49.5 -22 t-31 -38t-18 -45t-12 -55.5z" />
<glyph unicode="b" horiz-adv-x="1069" d="M45 27l244 1378l295 41l-90 -514q147 86 290 86q157 0 210 -90q33 -57 33 -148q0 -53 -11 -118l-47 -269q-12 -67 -25 -114t-38 -98t-62.5 -84.5t-93 -61.5t-136 -41.5t-184.5 -13.5q-190 0 -385 47zM371 227q52 -6 112 -6q54 0 91 12t57.5 38t30.5 52.5t18 67.5l53 307 q8 41 -4.5 59.5t-50.5 18.5q-45 0 -111 -24t-114 -54z" />
<glyph unicode="c" horiz-adv-x="854" d="M57 233q0 71 17 152l55 279q21 106 57 174.5t96 108.5t135.5 55.5t186.5 15.5q130 0 232 -41l-70 -234q-89 29 -166 29q-97 0 -138 -34t-56 -122l-54 -303q-4 -24 -4 -39q0 -49 53 -49q64 0 281 62l27 -232q-64 -31 -158 -53t-172 -22q-171 0 -246.5 60t-75.5 193z" />
<glyph unicode="d" horiz-adv-x="1085" d="M59 334l47 268q9 50 17.5 86.5t22.5 78.5t33 71.5t46.5 60.5t64.5 50.5t85.5 36.5t112 24.5t141.5 7.5q76 0 121 -10l69 397l295 41l-254 -1446h-244l-8 86q-129 -106 -317 -106q-157 0 -210 90q-33 56 -33 146q0 53 11 118zM342 299q-8 -41 4.5 -59.5t50.5 -18.5 q116 0 232 103l78 444q-44 8 -113 8q-54 0 -91.5 -13t-58.5 -40t-31 -54t-18 -69z" />
<glyph unicode="e" horiz-adv-x="946" d="M51 240q0 56 12 120l50 281q16 91 45 156.5t80.5 117t134.5 77.5t198 26q148 0 240 -64.5t92 -185.5q0 -143 -78.5 -222t-267.5 -136q-107 -33 -209 -60l-12 -69q-5 -33 5 -51.5t46 -18.5q137 0 391 111l56 -205q-95 -59 -228 -98t-260 -39q-153 0 -224 65t-71 195z M389 584q99 24 131 34q115 34 115 119q0 27 -22.5 42.5t-61.5 15.5q-72 0 -105 -36.5t-45 -105.5z" />
<glyph unicode="f" horiz-adv-x="733" d="M-41 -252q70 71 94 121t37 131l135 762h-143l41 235h143l25 131q16 87 39.5 143.5t65 97.5t103.5 59t152 18q140 0 256 -43l-59 -227q-34 12 -85 21t-85 9q-49 0 -68.5 -14t-27.5 -53l-27 -142h258l-61 -235h-238l-139 -795q-20 -109 -68.5 -194t-161.5 -197z" />
<glyph unicode="g" horiz-adv-x="1089" d="M-4 -346l51 203q241 -58 397 -58q61 0 85 23t34 78l35 206q-147 -86 -291 -86q-157 0 -209 91q-34 57 -34 148q0 53 12 118l41 227q11 61 21.5 103t29.5 89t44 77.5t64 60.5t90.5 46.5t123 27t161.5 10.5q201 0 387 -60l-196 -1105q-15 -85 -41.5 -137.5t-75 -84.5 t-115 -43.5t-170.5 -11.5q-88 0 -219 23.5t-225 54.5zM358 340q-8 -40 5 -59t51 -19q45 0 111 24t114 54l76 430q-53 6 -113 6q-54 0 -90.5 -12t-57.5 -38t-30.5 -52t-17.5 -68z" />
<glyph unicode="h" horiz-adv-x="1120" d="M41 0l248 1405l295 41l-92 -528q198 100 364 100q96 0 139 -52t43 -151q0 -64 -10 -115l-123 -700h-289l119 676q4 24 4 33q0 15 -8.5 21.5t-30.5 6.5q-37 0 -114.5 -29.5t-143.5 -64.5l-112 -643h-289z" />
<glyph unicode="i" horiz-adv-x="555" d="M41 0l172 975l297 41l-180 -1016h-289zM238 1108l53 307l297 41l-56 -307z" />
<glyph unicode="j" horiz-adv-x="561" d="M-143 -225q114 89 134 109q41 40 53 99q2 8 3 17l172 975l297 41l-188 -1063q-10 -54 -24 -90.5t-49 -81t-96 -92.5t-161 -113zM244 1108l53 307l297 41l-55 -307z" />
<glyph unicode="k" horiz-adv-x="1048" d="M41 0l246 1405l297 41l-254 -1446h-289zM446 502l349 518l299 -45l-349 -473l185 -502h-305z" />
<glyph unicode="l" horiz-adv-x="555" d="M41 0l246 1405l297 41l-254 -1446h-289z" />
<glyph unicode="m" horiz-adv-x="1695" d="M41 0l170 973l254 43l-2 -111q238 113 393 113q136 0 172 -117q202 117 404 117q96 0 139 -52t43 -151q0 -64 -10 -115l-123 -700h-289l119 678q4 24 4 31q0 15 -8.5 21.5t-30.5 6.5q-37 0 -113.5 -29.5t-146.5 -66.5l-113 -641h-287l119 678q4 24 4 31q0 15 -8.5 21.5 t-30.5 6.5q-37 0 -114.5 -29.5t-143.5 -64.5l-112 -643h-289z" />
<glyph unicode="n" horiz-adv-x="1120" d="M41 0l170 973l254 43l-2 -111q238 113 393 113q96 0 139 -52t43 -151q0 -51 -10 -115l-123 -700h-289l119 678q4 24 4 31q0 15 -8.5 21.5t-30.5 6.5q-37 0 -114.5 -29.5t-143.5 -64.5l-112 -643h-289z" />
<glyph unicode="o" horiz-adv-x="1064" d="M51 313q0 35 6 70l41 231q18 100 51.5 171.5t93 125.5t152.5 80.5t221 26.5q191 0 290.5 -94.5t99.5 -237.5q0 -28 -7 -72l-41 -231q-17 -96 -49 -165t-90.5 -125.5t-153.5 -84.5t-227 -28q-183 0 -285 95t-102 238zM342 334q0 -113 139 -113q164 0 189 154l43 248 q4 28 4 41q0 112 -139 112q-81 0 -129 -39.5t-60 -113.5l-43 -248q-4 -28 -4 -41z" />
<glyph unicode="p" horiz-adv-x="1085" d="M-37 -444l254 1441h244l8 -86q131 107 317 107q157 0 210 -90q33 -56 33 -146q0 -53 -11 -118l-47 -269q-9 -51 -17.5 -87t-22.5 -78t-32.5 -71.5t-46 -60t-65 -50.5t-85.5 -36.5t-111.5 -24t-141.5 -7.5q-76 0 -121 10l-70 -393zM371 229q44 -8 112 -8q54 0 91.5 13 t58.5 40t31 54t18 69l53 301q8 41 -4.5 59.5t-50.5 18.5q-117 0 -231 -102z" />
<glyph unicode="q" horiz-adv-x="1083" d="M59 336l47 268q10 57 20.5 98.5t30 87.5t45 77.5t65.5 62t92 48.5t124 29t162 11q190 0 385 -47l-244 -1374l-294 -41l90 510q-147 -86 -291 -86q-157 0 -210 90q-33 58 -33 148q0 53 11 118zM342 299q-8 -41 4.5 -59.5t50.5 -18.5q45 0 111.5 24t114.5 54l82 471 q-53 6 -113 6q-54 0 -91 -12t-57.5 -38t-30.5 -52.5t-18 -67.5z" />
<glyph unicode="r" horiz-adv-x="692" d="M41 0l170 973l254 43l-6 -135q142 84 260 135l4 -260q-173 -95 -289 -168l-104 -588h-289z" />
<glyph unicode="s" horiz-adv-x="845" d="M25 45l55 213q144 -51 270 -51q66 0 85 17t26 59q1 6 1 12q0 27 -22 47q-26 26 -112 70q-103 54 -148.5 102t-51.5 102q-2 16 -2 33q0 43 11 96q20 113 55.5 168.5t109.5 80t214 24.5q154 0 297 -47l-47 -217q-137 37 -252 37q-63 0 -81.5 -11.5t-26.5 -52.5 q-6 -35 10 -53t88 -56q61 -33 99 -55.5t69.5 -47.5t46 -45.5t22.5 -48t7 -56t-9 -70.5q-17 -91 -39 -145.5t-66.5 -95.5t-116 -57.5t-183.5 -16.5q-70 0 -157 18t-152 47z" />
<glyph unicode="t" horiz-adv-x="770" d="M80 766l41 231h147l41 240l297 41l-49 -281h238l-58 -231h-221l-88 -498q-4 -20 -4 -26q0 -21 29 -21q50 0 155 41l58 -201q-148 -81 -318 -81q-108 0 -165.5 49t-57.5 139q0 15 4 43l98 555h-147z" />
<glyph unicode="u" horiz-adv-x="1122" d="M74 182q0 47 10 115l119 678l295 41l-121 -694q-4 -20 -4 -31q0 -31 39 -31q70 0 258 94l108 621l297 41l-178 -1016h-246l-2 92q-236 -112 -393 -112q-182 0 -182 202z" />
<glyph unicode="v" horiz-adv-x="978" d="M100 967l289 41l76 -744l209 498q24 65 24 127q0 41 -10 86l281 41q14 -51 14 -121q0 -105 -33 -180l-321 -715h-391z" />
<glyph unicode="w" horiz-adv-x="1460" d="M113 963l276 43q43 -245 43 -482q0 -109 -8 -205l250 484l-35 158l266 40l121 -669l109 420q12 62 12 102q0 45 -17 109l279 53q21 -100 21 -158q0 -102 -58 -252l-205 -606h-333l-86 453l-246 -453h-324q-2 520 -65 963z" />
<glyph unicode="x" horiz-adv-x="1003" d="M-37 0l395 502l-215 473l277 41l129 -332l215 313h307l-401 -534l211 -463h-289l-117 250l-207 -250h-305z" />
<glyph unicode="y" horiz-adv-x="978" d="M35 -215q104 39 174 90t121 125h-92l-138 967l289 41l76 -744l209 498q24 65 24 127q0 41 -10 86l281 41q14 -51 14 -121q0 -105 -33 -180l-321 -715q-62 -124 -119.5 -197.5t-154 -135t-246.5 -109.5z" />
<glyph unicode="z" horiz-adv-x="925" d="M53 221l475 547h-376l38 229h676l-2 -221l-477 -545h393l-39 -231h-678z" />
<glyph unicode="{" horiz-adv-x="675" d="M80 557l39 213h53q44 0 61.5 18t24.5 56l84 471q19 110 55.5 174t104.5 96.5t178 32.5h174l-41 -225h-86q-47 0 -70 -21t-32 -72l-74 -421q-18 -99 -69.5 -153.5t-147.5 -61.5q91 -6 125 -62.5t16 -152.5l-74 -422q-9 -50 8.5 -71.5t61.5 -21.5h86l-41 -225h-174 q-284 0 -229 303l82 471q13 74 -66 74h-49z" />
<glyph unicode="|" horiz-adv-x="565" d="M215 -430v2048h197v-2048h-197z" />
<glyph unicode="}" horiz-adv-x="673" d="M-129 -291l41 225h86q47 0 70 21t32 72l74 422q18 99 69.5 153.5t147.5 61.5q-91 6 -125 62.5t-16 152.5l74 421q9 50 -8.5 71.5t-61.5 21.5h-86l41 225h174q284 0 229 -303l-82 -471q-13 -74 66 -74h49l-39 -213h-53q-44 0 -61.5 -18t-24.5 -56l-84 -471 q-19 -110 -55.5 -174t-104.5 -96.5t-178 -32.5h-174z" />
<glyph unicode="~" horiz-adv-x="944" d="M47 475q62 132 129 195t170 63q42 0 99.5 -32.5t113 -64.5t92.5 -32q28 0 50.5 10t39.5 30.5t28 39t24 47.5l139 -90q-49 -122 -118.5 -190t-174.5 -68q-45 0 -92.5 20t-81 44.5t-70.5 44.5t-63 20q-27 0 -49.5 -10t-40.5 -31t-29.5 -39t-26.5 -47z" />
<glyph unicode="&#xa1;" horiz-adv-x="581" d="M-16 -403l100 569l125 356h164l-2 -356l-101 -569h-286zM168 657l59 340h295l-59 -340h-295z" />
<glyph unicode="&#xa2;" horiz-adv-x="870" d="M72 418q0 60 16 151l49 250q35 179 113 265t223 108l35 192h184l-33 -184q99 -5 191 -39l-70 -233q-86 28 -166 28q-97 0 -138 -33.5t-56 -121.5l-53 -303q-5 -30 -5 -39q0 -49 54 -49q66 0 280 61l27 -231q-111 -55 -246 -70l-33 -190h-184l33 190q-117 15 -169 75.5 t-52 172.5z" />
<glyph unicode="&#xa3;" horiz-adv-x="1101" d="M41 0l43 242q105 62 173.5 155t68.5 183h-207l31 206h147q-13 36 -23 93.5t-10 101.5q0 188 106 275t332 87q177 0 359 -49l-41 -223q-165 33 -305 33q-91 0 -129.5 -33.5t-38.5 -118.5q0 -94 28 -166h359l-33 -206h-307q0 -98 -41 -188.5t-133 -151.5h553l-43 -240h-889 z" />
<glyph unicode="&#xa4;" horiz-adv-x="1193" d="M141 299l105 127q-10 38 -10 72q0 15 4 51l47 274q13 78 47 129l-98 121l176 150l114 -142q74 19 170 19q72 0 138 -17l114 140l176 -150l-116 -141q6 -24 6 -55q0 -22 -4 -54l-47 -274q-12 -66 -41 -119l108 -131l-176 -149l-119 143q-77 -21 -184 -21q-66 0 -123 13 l-111 -135zM483 547q0 -36 26 -47t81 -11q57 0 90 16.5t43 69.5l39 222q2 10 2 22q0 39 -28 51.5t-79 12.5q-57 0 -90 -16.5t-43 -69.5l-39 -222q-2 -10 -2 -28z" />
<glyph unicode="&#xa5;" horiz-adv-x="1122" d="M47 240l33 182h299l-43 170h-227l32 182h148l-144 549h306l141 -590l336 590h346l-346 -549h178l-35 -182h-258l-106 -170h337l-34 -182h-346l-41 -240h-304l41 240h-313z" />
<glyph unicode="&#xa6;" horiz-adv-x="565" d="M215 420h197v-850h-197v850zM215 768v850h197v-850h-197z" />
<glyph unicode="&#xa7;" horiz-adv-x="1073" d="M168 762q0 218 27 381q11 61 31.5 103t58.5 74.5t99 48t148 15.5q89 0 184.5 -17t160.5 -42l-50 -186q-180 47 -295 47q-49 0 -74.5 -21t-33.5 -67q-23 -132 -23 -334q0 -334 54 -729l-224 -35q-63 376 -63 762zM199 -324l49 187q180 -47 295 -47q49 0 74.5 21t33.5 67 q23 132 23 334q0 341 -53 729l223 34q63 -376 63 -761q0 -224 -26 -381q-11 -61 -31.5 -103.5t-59 -75t-99.5 -48t-148 -15.5q-89 0 -183.5 17t-160.5 42z" />
<glyph unicode="&#xa8;" horiz-adv-x="890" d="M236 1133l43 241l227 10l-41 -241zM641 1133l43 241l227 10l-41 -241z" />
<glyph unicode="&#xa9;" horiz-adv-x="1581" d="M133 682q0 194 85.5 353.5t246 254t366.5 94.5q155 0 287 -55t221.5 -150t140 -223.5t50.5 -273.5q0 -144 -50.5 -272.5t-140 -223.5t-221.5 -150.5t-287 -55.5q-206 0 -366.5 95t-246 254t-85.5 353zM324 682q0 -145 62 -262t178.5 -185.5t266.5 -68.5t267 68.5 t179 185.5t62 262q0 223 -140.5 369.5t-367.5 146.5t-367 -146.5t-140 -369.5zM553 590v190q0 131 68.5 195.5t228.5 64.5q101 0 197 -39l-31 -159q-73 24 -152 24q-56 0 -80 -19t-24 -65v-194q0 -46 24 -65t80 -19q79 0 152 24l31 -159q-96 -39 -197 -39 q-160 0 -228.5 64.5t-68.5 195.5z" />
<glyph unicode="&#xaa;" horiz-adv-x="778" d="M174 907q0 40 8 84l27 142q28 160 106 226t242 66q49 0 121.5 -12.5t120.5 -28.5l-105 -610h-157l-2 60q-99 -72 -209 -72q-81 0 -116.5 36.5t-35.5 108.5zM360 944q0 -18 29 -18q34 0 80.5 24t79.5 54l43 260q-20 4 -49 4q-69 0 -102.5 -24.5t-43.5 -84.5l-32 -186 q-1 -4 -2 -10.5t-2 -10.5t-1 -8z" />
<glyph unicode="&#xab;" horiz-adv-x="1038" d="M51 500l314 393l174 -145l-211 -248l118 -293l-202 -101zM516 500l313 393l175 -145l-211 -248l118 -293l-202 -101z" />
<glyph unicode="&#xac;" horiz-adv-x="1032" d="M102 532v222h828v-541h-238v319h-590z" />
<glyph unicode="&#xad;" horiz-adv-x="684" d="M70 451l43 245h520l-43 -245h-520z" />
<glyph unicode="&#xae;" horiz-adv-x="894" d="M195 1055q0 158 100.5 264t263.5 106q164 0 265.5 -106t101.5 -264q0 -159 -101.5 -266t-265.5 -107q-162 0 -263 107t-101 266zM307 1055q0 -114 64.5 -189t187.5 -75t188.5 75t65.5 189t-65.5 188t-188.5 74t-187.5 -74t-64.5 -188zM438 895v336h137q109 0 109 -96v-33 q0 -61 -47 -82l84 -125h-84l-78 113h-47v-113h-74zM512 1073h57q43 0 43 37v16q0 37 -43 37h-57v-90z" />
<glyph unicode="&#xaf;" horiz-adv-x="718" d="M215 1135l33 188h512l-33 -188h-512z" />
<glyph unicode="&#xb0;" horiz-adv-x="763" d="M184 1012q0 148 82.5 239.5t243.5 91.5q110 0 174 -62.5t64 -156.5q0 -139 -88 -234t-242 -95q-107 0 -170.5 61t-63.5 156zM336 1034q0 -47 25.5 -76.5t78.5 -29.5q71 0 112.5 51.5t41.5 122.5q0 50 -25 79t-77 29q-73 0 -114.5 -47t-41.5 -129z" />
<glyph unicode="&#xb1;" horiz-adv-x="1056" d="M119 0v209h825v-209h-825zM119 633v219h299v307h227v-307h299v-219h-299v-305h-227v305h-299z" />
<glyph unicode="&#xb2;" horiz-adv-x="821" d="M143 502l27 155q76 67 221 195q115 101 138.5 128t29.5 67l6 36q2 10 2 25q0 27 -16 37t-55 10q-80 0 -211 -31l-31 174q149 45 272 45q119 0 186.5 -47t67.5 -139q0 -17 -4 -49l-10 -61q-8 -43 -14 -64t-29 -56t-66 -77q-60 -60 -178 -174h246l-29 -174h-553z" />
<glyph unicode="&#xb3;" horiz-adv-x="780" d="M143 530l37 150q129 -29 226 -29q43 0 62.5 12.5t25.5 45.5l12 71q2 12 2 19q0 23 -13.5 31t-45.5 8h-211l26 151h197q72 0 82 68l8 49q2 12 2 27q0 25 -18.5 35t-71.5 10q-98 0 -174 -13l-10 154q105 24 223 24q140 0 199 -39t59 -120q0 -34 -4 -54l-8 -49 q-11 -70 -36.5 -102.5t-93.5 -58.5q49 -18 69 -46.5t20 -70.5q0 -20 -7 -60l-8 -47q-15 -84 -43 -127t-87 -63.5t-167 -20.5q-122 0 -252 45z" />
<glyph unicode="&#xb4;" horiz-adv-x="634" d="M236 1253q141 76 335 209l93 -168q-140 -95 -345 -192z" />
<glyph unicode="&#xb5;" horiz-adv-x="1122" d="M-39 -403l242 1378l295 41l-121 -694q-4 -24 -4 -31q0 -31 39 -31q37 0 117.5 30.5t140.5 63.5l108 621l297 41l-178 -1016h-246l-2 92q-199 -94 -334 -108l-67 -387h-287z" />
<glyph unicode="&#xb6;" horiz-adv-x="1085" d="M164 817q0 129 42 233.5t115.5 172.5t172 104.5t213.5 36.5l-162 -915q-175 0 -278 102t-103 266zM324 -270q24 19 67 53q156 122 189 157q37 40 48 94q0 3 1 7l233 1323h217l-239 -1356q-10 -60 -26.5 -96t-57.5 -74q-52 -47 -326 -262z" />
<glyph unicode="&#xb7;" horiz-adv-x="569" d="M133 520l60 340h288l-59 -340h-289z" />
<glyph unicode="&#xb8;" horiz-adv-x="598" d="M-31 -373l33 107q63 -19 117 -19q110 0 110 64q0 37 -43 37q-57 0 -110 -4l-33 32l78 197h121l-52 -141q41 6 68 6q57 0 86 -35t29 -82q0 -96 -63 -144t-195 -48q-69 0 -146 30z" />
<glyph unicode="&#xb9;" horiz-adv-x="729" d="M188 1171l316 152h164l-146 -825h-207l105 587l-172 -69z" />
<glyph unicode="&#xba;" horiz-adv-x="804" d="M195 975q0 17 4 45l26 147q23 131 97.5 194.5t234.5 63.5q122 0 185 -60t63 -153q0 -17 -4 -45l-25 -147q-12 -62 -32.5 -106t-58 -80t-98.5 -54t-145 -18q-117 0 -182 60.5t-65 152.5zM381 989q0 -74 90 -74q103 0 119 99l28 160q3 12 3 24q0 74 -89 74q-104 0 -120 -98 l-29 -160q-2 -10 -2 -25z" />
<glyph unicode="&#xbb;" horiz-adv-x="1036" d="M45 252l211 248l-119 293l203 100l192 -393l-313 -394zM510 252l211 248l-119 293l203 100l192 -393l-313 -394z" />
<glyph unicode="&#xbc;" horiz-adv-x="1769" d="M188 1171l316 152h164l-146 -825h-207l105 587l-172 -69zM340 -20l889 1443l133 -80l-891 -1447zM897 160l14 143l373 522h295l-90 -508h117l-25 -157h-121l-26 -160h-197l27 160h-367zM1118 317h174l64 357z" />
<glyph unicode="&#xbd;" horiz-adv-x="1794" d="M188 1171l316 152h164l-146 -825h-207l105 587l-172 -69zM340 -20l889 1443l133 -80l-891 -1447zM1024 0l27 156q29 25 67 58t73 64t81 72q115 101 138.5 128t29.5 67l6 37q2 10 2 24q0 27 -16.5 37t-55.5 10q-84 0 -211 -30l-30 174q149 45 272 45q118 0 186 -47.5 t68 -139.5q0 -17 -4 -49l-10 -61q-8 -43 -14 -64t-29 -56t-66 -77q-60 -60 -178 -174h246l-29 -174h-553z" />
<glyph unicode="&#xbe;" horiz-adv-x="1841" d="M143 530l37 150q129 -29 226 -29q43 0 62.5 12.5t25.5 45.5l12 71q2 12 2 19q0 23 -13.5 31t-45.5 8h-211l26 151h197q72 0 82 68l8 49q2 12 2 27q0 25 -18.5 35t-71.5 10q-98 0 -174 -13l-10 154q105 24 223 24q140 0 199 -39t59 -120q0 -34 -4 -54l-8 -49 q-11 -70 -36.5 -102.5t-93.5 -58.5q49 -18 69 -46.5t20 -70.5q0 -20 -7 -60l-8 -47q-15 -84 -43 -127t-87 -63.5t-167 -20.5q-122 0 -252 45zM412 -20l888 1443l134 -80l-891 -1447zM969 160l14 143l373 522h295l-90 -508h116l-24 -157h-121l-27 -160h-196l26 160h-366z M1190 317h174l63 357z" />
<glyph unicode="&#xbf;" horiz-adv-x="987" d="M-8 -150q0 45 10 113q10 56 15.5 84t18.5 68t25 60t40.5 55t57.5 58.5t83 64.5t111.5 79.5t148.5 97.5l139 -208q-105 -70 -160.5 -110t-96 -71.5t-56.5 -57t-22.5 -45.5t-12.5 -58q-4 -28 -4 -39q0 -44 11.5 -65t49 -32.5t113.5 -11.5q96 0 293 35l28 -246 q-182 -45 -387 -45q-202 0 -303.5 71t-101.5 203zM395 657l60 340h288l-59 -340h-289z" />
<glyph unicode="&#xc0;" horiz-adv-x="1294" d="M-72 0l656 1364h411l195 -1364h-320l-28 268h-465l-123 -268h-326zM487 518h326l-57 594zM549 1632l125 148q83 -85 227 -197l-108 -135q-116 68 -244 184z" />
<glyph unicode="&#xc1;" horiz-adv-x="1294" d="M-72 0l656 1364h411l195 -1364h-320l-28 268h-465l-123 -268h-326zM487 518h326l-57 594zM696 1599q136 73 293 181l92 -168q-134 -96 -301 -164z" />
<glyph unicode="&#xc2;" horiz-adv-x="1294" d="M-72 0l656 1364h411l195 -1364h-320l-28 268h-465l-123 -268h-326zM487 518h326l-57 594zM557 1587q155 87 291 185q74 -83 223 -197l-90 -123q-85 41 -170 104q-79 -63 -174 -104z" />
<glyph unicode="&#xc3;" horiz-adv-x="1294" d="M-72 0l656 1364h411l195 -1364h-320l-28 268h-465l-123 -268h-326zM487 518h326l-57 594zM487 1559q42 79 105.5 126.5t130.5 47.5q42 0 85.5 -23.5t81.5 -46.5t66 -23q34 0 55.5 20t39.5 64l123 -61q-40 -95 -94 -146t-146 -51q-39 0 -73 14t-53.5 31t-45 31t-51.5 14 q-23 0 -48 -18t-36.5 -31.5t-34.5 -42.5z" />
<glyph unicode="&#xc4;" horiz-adv-x="1294" d="M-72 0l656 1364h411l195 -1364h-320l-28 268h-465l-123 -268h-326zM477 1489l39 223h234l-39 -223h-234zM487 518h326l-57 594zM907 1489l39 223h234l-39 -223h-234z" />
<glyph unicode="&#xc5;" horiz-adv-x="1294" d="M-72 0l656 1364h411l195 -1364h-320l-28 268h-465l-123 -268h-326zM487 518h326l-57 594zM653 1589q0 97 55.5 151t155.5 54q72 0 116 -38.5t44 -96.5q0 -93 -54.5 -152t-162.5 -59q-66 0 -110 40t-44 101zM768 1602q0 -54 55 -54q41 0 63.5 24.5t22.5 67.5 q0 25 -15.5 39.5t-41.5 14.5q-39 0 -61.5 -24t-22.5 -68z" />
<glyph unicode="&#xc6;" horiz-adv-x="1746" d="M-72 0l656 1364h1212l-47 -266h-723l37 -260h598l-47 -265h-512l43 -307h457l-46 -266h-686l-28 268h-465l-123 -268h-326zM487 518h326l-57 594z" />
<glyph unicode="&#xc7;" horiz-adv-x="1085" d="M76 313q0 38 8 82l104 590q37 209 169 304t382 95q182 0 394 -59l-68 -258q-207 45 -356 45q-109 0 -160 -42.5t-70 -149.5l-84 -476q-6 -35 -6 -63q0 -69 40 -99t128 -30q176 0 354 39l11 -258q-148 -45 -361 -51l-29 -82q40 6 68 6q57 0 86 -35t29 -82q0 -96 -63 -144 t-195 -48q-69 0 -146 30l33 107q63 -19 117 -19q110 0 110 64q0 37 -43 37q-57 0 -110 -4l-33 32l53 140q-181 14 -271.5 102.5t-90.5 226.5z" />
<glyph unicode="&#xc8;" horiz-adv-x="1089" d="M41 0l240 1364h858l-47 -266h-557l-46 -260h515l-48 -265h-514l-55 -307h557l-45 -266h-858zM487 1632l125 148q80 -82 228 -197l-109 -135q-116 68 -244 184z" />
<glyph unicode="&#xc9;" horiz-adv-x="1089" d="M41 0l240 1364h858l-47 -266h-557l-46 -260h515l-48 -265h-514l-55 -307h557l-45 -266h-858zM580 1599q131 71 292 181l93 -168q-134 -96 -301 -164z" />
<glyph unicode="&#xca;" horiz-adv-x="1089" d="M41 0l240 1364h858l-47 -266h-557l-46 -260h515l-48 -265h-514l-55 -307h557l-45 -266h-858zM471 1587q155 87 291 185q74 -83 223 -197l-90 -123q-85 41 -170 104q-79 -63 -174 -104z" />
<glyph unicode="&#xcb;" horiz-adv-x="1089" d="M41 0l240 1364h858l-47 -266h-557l-46 -260h515l-48 -265h-514l-55 -307h557l-45 -266h-858zM397 1489l39 223h234l-39 -223h-234zM827 1489l39 223h234l-39 -223h-234z" />
<glyph unicode="&#xcc;" horiz-adv-x="587" d="M51 0l240 1364h301l-240 -1364h-301zM209 1632l125 148q83 -85 227 -197l-108 -135q-116 68 -244 184z" />
<glyph unicode="&#xcd;" horiz-adv-x="587" d="M51 0l240 1364h301l-240 -1364h-301zM330 1599q136 73 293 181l92 -168q-134 -96 -301 -164z" />
<glyph unicode="&#xce;" horiz-adv-x="587" d="M51 0l240 1364h301l-240 -1364h-301zM219 1587q155 87 291 185q74 -83 223 -197l-90 -123q-85 41 -170 104q-79 -63 -174 -104z" />
<glyph unicode="&#xcf;" horiz-adv-x="587" d="M51 0l240 1364h301l-240 -1364h-301zM133 1489l39 223h234l-39 -223h-234zM563 1489l39 223h234l-39 -223h-234z" />
<glyph unicode="&#xd0;" horiz-adv-x="1267" d="M55 569l41 236h129l99 559h520q107 0 187 -27.5t126 -75.5t68 -106t22 -125q0 -38 -6 -76l-106 -602q-11 -62 -26 -107t-49.5 -94t-85.5 -80t-136.5 -51t-198.5 -20h-557l100 569h-127zM430 266h209q59 0 98 10.5t61 34.5t32 51.5t18 73.5l86 492q6 30 6 55 q0 58 -39.5 86.5t-132.5 28.5h-190l-54 -293h191l-41 -236h-191z" />
<glyph unicode="&#xd1;" horiz-adv-x="1398" d="M41 0l240 1364h366l299 -989l174 989h293l-239 -1364h-371l-305 936l-162 -936h-295zM532 1559q42 79 105.5 126.5t130.5 47.5q42 0 85.5 -23.5t82 -46.5t65.5 -23q34 0 55.5 20t39.5 64l123 -61q-40 -95 -94 -146t-146 -51q-39 0 -73 14t-53.5 31t-45 31t-51.5 14 q-23 0 -48 -18t-36.5 -31.5t-34.5 -42.5z" />
<glyph unicode="&#xd2;" d="M76 342q0 34 6 64l98 563q17 99 56.5 172.5t108 129.5t174 84.5t247.5 28.5q117 0 210 -31.5t149.5 -84t86 -117.5t29.5 -137q0 -32 -6 -62l-98 -557q-18 -101 -57 -175t-109 -129.5t-178.5 -83t-257.5 -27.5q-116 0 -206.5 30.5t-144.5 82t-81 115t-27 134.5zM381 375 q0 -64 47 -96.5t154 -32.5q228 0 258 176l92 520q4 28 4 41q0 135 -201 135q-114 0 -178.5 -46t-79.5 -130l-92 -520q-4 -32 -4 -47zM539 1632l125 148q83 -85 227 -197l-109 -135q-113 66 -243 184z" />
<glyph unicode="&#xd3;" d="M76 342q0 34 6 64l98 563q17 99 56.5 172.5t108 129.5t174 84.5t247.5 28.5q117 0 210 -31.5t149.5 -84t86 -117.5t29.5 -137q0 -32 -6 -62l-98 -557q-18 -101 -57 -175t-109 -129.5t-178.5 -83t-257.5 -27.5q-116 0 -206.5 30.5t-144.5 82t-81 115t-27 134.5zM381 375 q0 -64 47 -96.5t154 -32.5q228 0 258 176l92 520q4 28 4 41q0 135 -201 135q-114 0 -178.5 -46t-79.5 -130l-92 -520q-4 -32 -4 -47zM666 1599q131 71 292 181l93 -168q-134 -96 -301 -164z" />
<glyph unicode="&#xd4;" d="M76 342q0 34 6 64l98 563q17 99 56.5 172.5t108 129.5t174 84.5t247.5 28.5q117 0 210 -31.5t149.5 -84t86 -117.5t29.5 -137q0 -32 -6 -62l-98 -557q-18 -101 -57 -175t-109 -129.5t-178.5 -83t-257.5 -27.5q-116 0 -206.5 30.5t-144.5 82t-81 115t-27 134.5zM381 375 q0 -64 47 -96.5t154 -32.5q228 0 258 176l92 520q4 28 4 41q0 135 -201 135q-114 0 -178.5 -46t-79.5 -130l-92 -520q-4 -32 -4 -47zM530 1587q155 87 291 185q74 -83 223 -197l-90 -123q-85 41 -170 104q-79 -63 -174 -104z" />
<glyph unicode="&#xd5;" d="M76 342q0 34 6 64l98 563q17 99 56.5 172.5t108 129.5t174 84.5t247.5 28.5q117 0 210 -31.5t149.5 -84t86 -117.5t29.5 -137q0 -32 -6 -62l-98 -557q-18 -101 -57 -175t-109 -129.5t-178.5 -83t-257.5 -27.5q-116 0 -206.5 30.5t-144.5 82t-81 115t-27 134.5zM381 375 q0 -64 47 -96.5t154 -32.5q228 0 258 176l92 520q4 28 4 41q0 135 -201 135q-114 0 -178.5 -46t-79.5 -130l-92 -520q-4 -32 -4 -47zM434 1559q42 79 105.5 126.5t130.5 47.5q42 0 85.5 -23.5t82 -46.5t65.5 -23q34 0 55 20t39 64l123 -61q-41 -96 -94 -146.5t-145 -50.5 q-39 0 -73 14t-53.5 31t-45.5 31t-52 14q-23 0 -48 -18t-35.5 -31t-34.5 -43z" />
<glyph unicode="&#xd6;" d="M76 342q0 34 6 64l98 563q17 99 56.5 172.5t108 129.5t174 84.5t247.5 28.5q117 0 210 -31.5t149.5 -84t86 -117.5t29.5 -137q0 -32 -6 -62l-98 -557q-18 -101 -57 -175t-109 -129.5t-178.5 -83t-257.5 -27.5q-116 0 -206.5 30.5t-144.5 82t-81 115t-27 134.5zM381 375 q0 -64 47 -96.5t154 -32.5q228 0 258 176l92 520q4 28 4 41q0 135 -201 135q-114 0 -178.5 -46t-79.5 -130l-92 -520q-4 -32 -4 -47zM463 1489l39 223h233l-39 -223h-233zM893 1489l39 223h233l-39 -223h-233z" />
<glyph unicode="&#xd7;" horiz-adv-x="991" d="M123 274l211 213l-211 213l162 164l211 -213l211 213l161 -164l-211 -213l211 -213l-161 -163l-211 213l-211 -213z" />
<glyph unicode="&#xd8;" d="M4 -47l143 184q-65 85 -65 205q0 34 6 64l98 563q17 99 56.5 172.5t108 129.5t174 84.5t247.5 28.5q175 0 297 -71l137 174l97 -76l-140 -176q84 -101 84 -221q0 -32 -6 -62l-98 -557q-18 -101 -57 -175t-109 -129.5t-178.5 -83t-257.5 -27.5q-181 0 -301 73l-138 -176z M397 455l494 630q-51 33 -150 33q-114 0 -178.5 -46t-79.5 -130zM422 287q47 -41 166 -41q228 0 258 176l92 520v4z" />
<glyph unicode="&#xd9;" horiz-adv-x="1273" d="M94 326q0 34 6 69l170 969h301l-163 -928q-7 -40 -7 -63q0 -65 42 -96t145 -31q118 0 172.5 44t70.5 134l166 940h301l-170 -969q-13 -74 -35 -131.5t-64 -113t-102.5 -91t-154.5 -57.5t-215 -22q-119 0 -210.5 28.5t-145.5 77.5t-80.5 109.5t-26.5 130.5zM571 1632 l125 148q80 -82 228 -197l-109 -135q-116 68 -244 184z" />
<glyph unicode="&#xda;" horiz-adv-x="1273" d="M94 326q0 34 6 69l170 969h301l-163 -928q-7 -40 -7 -63q0 -65 42 -96t145 -31q118 0 172.5 44t70.5 134l166 940h301l-170 -969q-13 -74 -35 -131.5t-64 -113t-102.5 -91t-154.5 -57.5t-215 -22q-119 0 -210.5 28.5t-145.5 77.5t-80.5 109.5t-26.5 130.5zM645 1599 q136 73 293 181l92 -168q-134 -96 -301 -164z" />
<glyph unicode="&#xdb;" horiz-adv-x="1273" d="M94 326q0 34 6 69l170 969h301l-163 -928q-7 -40 -7 -63q0 -65 42 -96t145 -31q118 0 172.5 44t70.5 134l166 940h301l-170 -969q-13 -74 -35 -131.5t-64 -113t-102.5 -91t-154.5 -57.5t-215 -22q-119 0 -210.5 28.5t-145.5 77.5t-80.5 109.5t-26.5 130.5zM561 1587 q155 87 291 185q74 -83 223 -197l-90 -123q-85 41 -170 104q-79 -63 -174 -104z" />
<glyph unicode="&#xdc;" horiz-adv-x="1273" d="M94 326q0 34 6 69l170 969h301l-163 -928q-7 -40 -7 -63q0 -65 42 -96t145 -31q118 0 172.5 44t70.5 134l166 940h301l-170 -969q-13 -74 -35 -131.5t-64 -113t-102.5 -91t-154.5 -57.5t-215 -22q-119 0 -210.5 28.5t-145.5 77.5t-80.5 109.5t-26.5 130.5zM467 1489 l39 223h233l-39 -223h-233zM897 1489l39 223h233l-39 -223h-233z" />
<glyph unicode="&#xdd;" horiz-adv-x="1095" d="M121 1364h305l152 -631l358 631h346l-606 -971l-68 -393h-303l68 393zM549 1599q136 73 293 181l92 -168q-134 -96 -301 -164z" />
<glyph unicode="&#xde;" horiz-adv-x="1216" d="M41 0l238 1364h301l-37 -217h219q217 0 325.5 -79t108.5 -228q0 -31 -12 -105l-27 -153q-18 -101 -48.5 -168t-88 -118t-149 -74t-224.5 -23h-272l-35 -199h-299zM422 459h250q99 0 136 34t52 117l19 109q6 37 6 59q0 53 -32 78t-101 25h-256z" />
<glyph unicode="&#xdf;" horiz-adv-x="1206" d="M-82 -252q70 71 94 121t37 131l187 1063q14 82 34 139t55 106t87 77.5t128.5 44.5t180.5 16q183 0 293 -78t110 -203q0 -158 -120 -307q-94 -118 -104 -138q-9 -16 -9 -34q0 -19 18.5 -46t73.5 -87q78 -85 104.5 -126.5t26.5 -82.5q0 -176 -83.5 -270t-280.5 -94 q-51 0 -123 9t-123 25l45 213q82 -20 184 -20q48 0 73 15.5t25 58.5q0 4 -0.5 7.5t-3 7.5t-5 7.5t-8 10t-10.5 12t-15 15.5l-19 19t-24 24.5t-29 29.5q-68 68 -94.5 113.5t-26.5 90.5q0 72 22.5 124.5t94.5 142.5q72 89 96.5 136.5t24.5 96.5q0 88 -132 88q-92 0 -128 -32.5 t-50 -114.5l-190 -1092q-20 -109 -68.5 -194t-161.5 -197z" />
<glyph unicode="&#xe0;" horiz-adv-x="1079" d="M70 334l47 268q13 78 32.5 135t58 112.5t93.5 90t142 55.5t202 21q181 0 381 -62l-166 -954h-244l-8 86q-140 -106 -317 -106q-156 0 -204 88.5t-17 265.5zM354 303q-6 -40 6 -57t50 -17q100 0 219 99l76 432q-49 10 -113 10q-44 0 -75.5 -9.5t-49.5 -22t-31 -38t-18 -45 t-12 -55.5zM430 1315l125 147q102 -105 256 -225l-109 -135q-151 98 -272 213z" />
<glyph unicode="&#xe1;" horiz-adv-x="1079" d="M70 334l47 268q13 78 32.5 135t58 112.5t93.5 90t142 55.5t202 21q181 0 381 -62l-166 -954h-244l-8 86q-140 -106 -317 -106q-156 0 -204 88.5t-17 265.5zM354 303q-6 -40 6 -57t50 -17q100 0 219 99l76 432q-49 10 -113 10q-44 0 -75.5 -9.5t-49.5 -22t-31 -38t-18 -45 t-12 -55.5zM498 1253q146 79 336 209l92 -168q-142 -97 -344 -192z" />
<glyph unicode="&#xe2;" horiz-adv-x="1079" d="M70 334l47 268q13 78 32.5 135t58 112.5t93.5 90t142 55.5t202 21q181 0 381 -62l-166 -954h-244l-8 86q-140 -106 -317 -106q-156 0 -204 88.5t-17 265.5zM354 303q-6 -40 6 -57t50 -17q100 0 219 99l76 432q-49 10 -113 10q-44 0 -75.5 -9.5t-49.5 -22t-31 -38t-18 -45 t-12 -55.5zM395 1225q175 106 332 221q97 -116 240 -234l-90 -122q-97 50 -189 135q-95 -73 -213 -135z" />
<glyph unicode="&#xe3;" horiz-adv-x="1079" d="M70 334l47 268q13 78 32.5 135t58 112.5t93.5 90t142 55.5t202 21q181 0 381 -62l-166 -954h-244l-8 86q-140 -106 -317 -106q-156 0 -204 88.5t-17 265.5zM340 1210q42 79 105 126.5t130 47.5q42 0 86 -23t82 -46t66 -23q34 0 55 20t39 64l123 -61q-40 -95 -94 -146 t-146 -51q-39 0 -73 14t-53.5 31t-45 31t-51.5 14q-23 0 -48 -18t-36.5 -31.5t-34.5 -42.5zM354 303q-6 -40 6 -57t50 -17q100 0 219 99l76 432q-49 10 -113 10q-44 0 -75.5 -9.5t-49.5 -22t-31 -38t-18 -45t-12 -55.5z" />
<glyph unicode="&#xe4;" horiz-adv-x="1079" d="M70 334l47 268q13 78 32.5 135t58 112.5t93.5 90t142 55.5t202 21q181 0 381 -62l-166 -954h-244l-8 86q-140 -106 -317 -106q-156 0 -204 88.5t-17 265.5zM352 1133l43 241l228 10l-41 -241zM354 303q-6 -40 6 -57t50 -17q100 0 219 99l76 432q-49 10 -113 10 q-44 0 -75.5 -9.5t-49.5 -22t-31 -38t-18 -45t-12 -55.5zM758 1133l43 241l227 10l-41 -241z" />
<glyph unicode="&#xe5;" horiz-adv-x="1079" d="M70 334l47 268q13 78 32.5 135t58 112.5t93.5 90t142 55.5t202 21q181 0 381 -62l-166 -954h-244l-8 86q-140 -106 -317 -106q-156 0 -204 88.5t-17 265.5zM354 303q-6 -40 6 -57t50 -17q100 0 219 99l76 432q-49 10 -113 10q-44 0 -75.5 -9.5t-49.5 -22t-31 -38t-18 -45 t-12 -55.5zM514 1266q0 103 62.5 164t168.5 61q77 0 121.5 -44t44.5 -108q0 -98 -58.5 -163.5t-172.5 -65.5q-71 0 -118.5 44.5t-47.5 111.5zM631 1280q0 -68 65 -68q44 0 71.5 31.5t27.5 77.5q0 31 -17 49.5t-49 18.5q-41 0 -69.5 -31.5t-28.5 -77.5z" />
<glyph unicode="&#xe6;" horiz-adv-x="1476" d="M35 240q0 163 92 241t258 78h217l14 82q7 40 7 57q0 47 -34.5 65.5t-127.5 18.5q-123 0 -283 -30l-28 211q182 55 364 55q202 0 274 -111q48 52 125.5 81.5t169.5 29.5q163 0 252.5 -78.5t89.5 -214.5q0 -60 -13.5 -106.5t-51 -92t-100 -77.5t-165 -55t-241.5 -32l-8 -47 q-4 -20 -4 -32q0 -68 90 -68q77 0 185 25t200 65l55 -209q-95 -53 -225.5 -84.5t-247.5 -31.5q-192 0 -281 106q-66 -57 -137.5 -81.5t-163.5 -24.5q-135 0 -208.5 74.5t-73.5 185.5zM307 266q0 -30 18.5 -50.5t59.5 -20.5q93 0 174 49v30q0 39 8 86h-127q-67 0 -100 -21 t-33 -73zM889 561q113 11 175 32t83.5 49.5t21.5 74.5q0 36 -27.5 56t-78.5 20q-64 0 -105 -36t-53 -106z" />
<glyph unicode="&#xe7;" horiz-adv-x="854" d="M57 233q0 55 17 152l49 250q42 216 150 299.5t331 83.5q130 0 232 -41l-70 -234q-89 29 -166 29q-97 0 -138 -34t-56 -122l-54 -303q-4 -24 -4 -39q0 -49 53 -49q64 0 281 62l27 -232q-116 -58 -271 -71l-28 -84q40 6 67 6q57 0 86 -35t29 -82q0 -96 -63 -144t-195 -48 q-69 0 -146 30l33 107q63 -19 117 -19q111 0 111 64q0 37 -43 37q-58 0 -111 -4l-33 32l53 138q-136 10 -197 70t-61 181z" />
<glyph unicode="&#xe8;" horiz-adv-x="946" d="M51 240q0 56 12 120l50 281q16 91 45 156.5t80.5 117t134.5 77.5t198 26q148 0 240 -64.5t92 -185.5q0 -143 -78.5 -222t-267.5 -136q-107 -33 -209 -60l-12 -69q-5 -33 5 -51.5t46 -18.5q137 0 391 111l56 -205q-95 -59 -228 -98t-260 -39q-153 0 -224 65t-71 195z M340 1315l125 147q102 -105 256 -225l-109 -135q-151 98 -272 213zM389 584q99 24 131 34q115 34 115 119q0 27 -22.5 42.5t-61.5 15.5q-72 0 -105 -36.5t-45 -105.5z" />
<glyph unicode="&#xe9;" horiz-adv-x="946" d="M51 240q0 56 12 120l50 281q16 91 45 156.5t80.5 117t134.5 77.5t198 26q148 0 240 -64.5t92 -185.5q0 -143 -78.5 -222t-267.5 -136q-107 -33 -209 -60l-12 -69q-5 -33 5 -51.5t46 -18.5q137 0 391 111l56 -205q-95 -59 -228 -98t-260 -39q-153 0 -224 65t-71 195z M389 584q99 24 131 34q115 34 115 119q0 27 -22.5 42.5t-61.5 15.5q-72 0 -105 -36.5t-45 -105.5zM420 1253q146 79 336 209l92 -168q-142 -97 -344 -192z" />
<glyph unicode="&#xea;" horiz-adv-x="946" d="M51 240q0 56 12 120l50 281q16 91 45 156.5t80.5 117t134.5 77.5t198 26q148 0 240 -64.5t92 -185.5q0 -143 -78.5 -222t-267.5 -136q-107 -33 -209 -60l-12 -69q-5 -33 5 -51.5t46 -18.5q137 0 391 111l56 -205q-95 -59 -228 -98t-260 -39q-153 0 -224 65t-71 195z M311 1225q175 106 332 221q97 -116 240 -234l-90 -122q-97 50 -189 135q-95 -73 -213 -135zM389 584q99 24 131 34q115 34 115 119q0 27 -22.5 42.5t-61.5 15.5q-72 0 -105 -36.5t-45 -105.5z" />
<glyph unicode="&#xeb;" horiz-adv-x="946" d="M51 240q0 56 12 120l50 281q16 91 45 156.5t80.5 117t134.5 77.5t198 26q148 0 240 -64.5t92 -185.5q0 -143 -78.5 -222t-267.5 -136q-107 -33 -209 -60l-12 -69q-5 -33 5 -51.5t46 -18.5q137 0 391 111l56 -205q-95 -59 -228 -98t-260 -39q-153 0 -224 65t-71 195z M291 1133l43 241l227 10l-41 -241zM389 584q99 24 131 34q115 34 115 119q0 27 -22.5 42.5t-61.5 15.5q-72 0 -105 -36.5t-45 -105.5zM696 1133l43 241l228 10l-41 -241z" />
<glyph unicode="&#xec;" horiz-adv-x="555" d="M41 0l172 975l297 41l-180 -1016h-289zM106 1315l125 147q102 -105 256 -225l-108 -135q-154 100 -273 213z" />
<glyph unicode="&#xed;" horiz-adv-x="555" d="M41 0l172 975l297 41l-180 -1016h-289zM260 1253q146 79 336 209l92 -168q-142 -97 -344 -192z" />
<glyph unicode="&#xee;" horiz-adv-x="555" d="M41 0l172 975l297 41l-180 -1016h-289zM115 1225q170 103 331 221q97 -116 240 -234l-90 -122q-95 49 -188 135q-95 -73 -213 -135z" />
<glyph unicode="&#xef;" horiz-adv-x="555" d="M41 0l172 975l297 41l-180 -1016h-289zM72 1133l43 241l227 10l-41 -241zM477 1133l43 241l228 10l-41 -241z" />
<glyph unicode="&#xf0;" horiz-adv-x="1003" d="M61 254q0 34 11 98l14 82q22 126 64.5 199t119.5 108t201 35q114 0 195 -33l6 37q8 41 8 82q0 57 -18.5 94.5t-57.5 67.5l-172 -143l-70 88l146 121q-93 41 -229 67l57 227q253 -31 389 -114l119 100l71 -86l-98 -84q146 -137 146 -344q0 -43 -15 -135l-65 -369 q-13 -76 -31 -130t-52 -102.5t-83.5 -77.5t-125 -45.5t-177.5 -16.5q-353 0 -353 274zM342 287q0 -38 24.5 -52t86.5 -14q73 0 102 28t41 103l27 154q-63 31 -146 31q-48 0 -74 -21.5t-36 -79.5l-21 -110q-4 -28 -4 -39z" />
<glyph unicode="&#xf1;" horiz-adv-x="1120" d="M41 0l170 973l254 43l-2 -111q238 113 393 113q96 0 139 -52t43 -151q0 -51 -10 -115l-123 -700h-289l119 678q4 24 4 31q0 15 -8.5 21.5t-30.5 6.5q-37 0 -114.5 -29.5t-143.5 -64.5l-112 -643h-289zM322 1210q42 79 105 126.5t130 47.5q42 0 86 -23t82 -46t66 -23 q34 0 55 20t39 64l123 -61q-40 -95 -94 -146t-146 -51q-39 0 -73 14t-53.5 31t-45 31t-51.5 14q-23 0 -48 -18t-36.5 -31.5t-34.5 -42.5z" />
<glyph unicode="&#xf2;" horiz-adv-x="1064" d="M51 313q0 35 6 70l41 231q18 100 51.5 171.5t93 125.5t152.5 80.5t221 26.5q191 0 290.5 -94.5t99.5 -237.5q0 -28 -7 -72l-41 -231q-17 -96 -49 -165t-90.5 -125.5t-153.5 -84.5t-227 -28q-183 0 -285 95t-102 238zM342 334q0 -113 139 -113q164 0 189 154l43 248 q4 28 4 41q0 112 -139 112q-81 0 -129 -39.5t-60 -113.5l-43 -248q-4 -28 -4 -41zM389 1315l125 147q102 -105 256 -225l-108 -135q-154 100 -273 213z" />
<glyph unicode="&#xf3;" horiz-adv-x="1064" d="M51 313q0 35 6 70l41 231q18 100 51.5 171.5t93 125.5t152.5 80.5t221 26.5q191 0 290.5 -94.5t99.5 -237.5q0 -28 -7 -72l-41 -231q-17 -96 -49 -165t-90.5 -125.5t-153.5 -84.5t-227 -28q-183 0 -285 95t-102 238zM342 334q0 -113 139 -113q164 0 189 154l43 248 q4 28 4 41q0 112 -139 112q-81 0 -129 -39.5t-60 -113.5l-43 -248q-4 -28 -4 -41zM492 1253q141 76 335 209l93 -168q-140 -95 -345 -192z" />
<glyph unicode="&#xf4;" horiz-adv-x="1064" d="M51 313q0 35 6 70l41 231q18 100 51.5 171.5t93 125.5t152.5 80.5t221 26.5q191 0 290.5 -94.5t99.5 -237.5q0 -28 -7 -72l-41 -231q-17 -96 -49 -165t-90.5 -125.5t-153.5 -84.5t-227 -28q-183 0 -285 95t-102 238zM342 334q0 -113 139 -113q164 0 189 154l43 248 q4 28 4 41q0 112 -139 112q-81 0 -129 -39.5t-60 -113.5l-43 -248q-4 -28 -4 -41zM362 1225q175 106 332 221q97 -116 240 -234l-90 -122q-97 50 -189 135q-95 -73 -213 -135z" />
<glyph unicode="&#xf5;" horiz-adv-x="1064" d="M51 313q0 35 6 70l41 231q18 100 51.5 171.5t93 125.5t152.5 80.5t221 26.5q191 0 290.5 -94.5t99.5 -237.5q0 -28 -7 -72l-41 -231q-17 -96 -49 -165t-90.5 -125.5t-153.5 -84.5t-227 -28q-183 0 -285 95t-102 238zM305 1210q42 79 105.5 126.5t130.5 47.5 q42 0 85.5 -23t81.5 -46t66 -23q34 0 55 20t39 64l123 -61q-41 -96 -94 -146.5t-145 -50.5q-39 0 -73 14t-53.5 31t-45.5 31t-52 14q-23 0 -48 -18t-35.5 -31t-34.5 -43zM342 334q0 -113 139 -113q164 0 189 154l43 248q4 28 4 41q0 112 -139 112q-81 0 -129 -39.5 t-60 -113.5l-43 -248q-4 -28 -4 -41z" />
<glyph unicode="&#xf6;" horiz-adv-x="1064" d="M51 313q0 35 6 70l41 231q18 100 51.5 171.5t93 125.5t152.5 80.5t221 26.5q191 0 290.5 -94.5t99.5 -237.5q0 -28 -7 -72l-41 -231q-17 -96 -49 -165t-90.5 -125.5t-153.5 -84.5t-227 -28q-183 0 -285 95t-102 238zM328 1133l43 241l227 10l-41 -241zM342 334 q0 -113 139 -113q164 0 189 154l43 248q4 28 4 41q0 112 -139 112q-81 0 -129 -39.5t-60 -113.5l-43 -248q-4 -28 -4 -41zM733 1133l43 241l228 10l-41 -241z" />
<glyph unicode="&#xf7;" horiz-adv-x="1075" d="M113 410v180h839v-180h-839zM399 0v272h267v-272h-267zM399 725v272h267v-272h-267z" />
<glyph unicode="&#xf8;" horiz-adv-x="1064" d="M0 -37l123 141q-72 87 -72 209q0 35 6 70l41 231q18 100 51.5 171.5t93 125.5t152.5 80.5t221 26.5q150 0 250 -64l127 146l74 -66l-129 -145q68 -86 68 -203q0 -28 -7 -72l-41 -231q-17 -96 -49 -165t-90.5 -125.5t-153.5 -84.5t-227 -28q-146 0 -241 61l-125 -141z M342 356l342 389q-36 31 -106 31q-81 0 -129 -39.5t-60 -113.5l-43 -248q-1 -3 -2 -9.5t-2 -9.5zM377 248q34 -27 104 -27q164 0 189 154l43 248q0 1 1 4.5t1 5.5z" />
<glyph unicode="&#xf9;" horiz-adv-x="1122" d="M74 182q0 47 10 115l119 678l295 41l-121 -694q-4 -20 -4 -31q0 -31 39 -31q70 0 258 94l108 621l297 41l-178 -1016h-246l-2 92q-236 -112 -393 -112q-182 0 -182 202zM414 1315l125 147q102 -105 256 -225l-109 -135q-151 98 -272 213z" />
<glyph unicode="&#xfa;" horiz-adv-x="1122" d="M74 182q0 47 10 115l119 678l295 41l-121 -694q-4 -20 -4 -31q0 -31 39 -31q70 0 258 94l108 621l297 41l-178 -1016h-246l-2 92q-236 -112 -393 -112q-182 0 -182 202zM498 1253q146 79 336 209l92 -168q-142 -97 -344 -192z" />
<glyph unicode="&#xfb;" horiz-adv-x="1122" d="M74 182q0 47 10 115l119 678l295 41l-121 -694q-4 -20 -4 -31q0 -31 39 -31q70 0 258 94l108 621l297 41l-178 -1016h-246l-2 92q-236 -112 -393 -112q-182 0 -182 202zM410 1225q170 103 331 221q97 -116 240 -234l-90 -122q-97 50 -189 135q-95 -73 -213 -135z" />
<glyph unicode="&#xfc;" horiz-adv-x="1122" d="M74 182q0 47 10 115l119 678l295 41l-121 -694q-4 -20 -4 -31q0 -31 39 -31q70 0 258 94l108 621l297 41l-178 -1016h-246l-2 92q-236 -112 -393 -112q-182 0 -182 202zM356 1133l43 241l228 10l-41 -241zM762 1133l43 241l227 10l-41 -241z" />
<glyph unicode="&#xfd;" horiz-adv-x="978" d="M35 -215q104 39 174 90t121 125h-92l-138 967l289 41l76 -744l209 498q24 65 24 127q0 41 -10 86l281 41q14 -51 14 -121q0 -105 -33 -180l-321 -715q-62 -124 -119.5 -197.5t-154 -135t-246.5 -109.5zM383 1253q146 79 336 209l92 -168q-142 -97 -344 -192z" />
<glyph unicode="&#xfe;" horiz-adv-x="1085" d="M-37 -444l324 1849l297 41l-90 -516q122 88 292 88q157 0 210 -89.5t22 -264.5l-47 -269q-9 -51 -17.5 -87t-22.5 -78t-32.5 -71.5t-46 -60t-65 -50.5t-85.5 -36.5t-111.5 -24t-141.5 -7.5q-76 0 -121 10l-70 -393zM371 229q44 -8 112 -8q54 0 91.5 13t58.5 40t31 54 t18 69l53 301q8 41 -4.5 59.5t-50.5 18.5q-117 0 -231 -102z" />
<glyph unicode="&#xff;" horiz-adv-x="978" d="M35 -215q104 39 174 90t121 125h-92l-138 967l289 41l76 -744l209 498q24 65 24 127q0 41 -10 86l281 41q14 -51 14 -121q0 -105 -33 -180l-321 -715q-62 -124 -119.5 -197.5t-154 -135t-246.5 -109.5zM252 1133l43 241l227 10l-41 -241zM657 1133l43 241l228 10 l-41 -241z" />
<glyph unicode="&#x152;" horiz-adv-x="1800" d="M80 362q0 34 6 64l92 522q17 99 57 173t108 130t174 84.5t247 28.5h1085l-47 -266h-557l-45 -260h514l-47 -265h-514l-55 -307h557l-45 -266h-1071q-116 0 -206.5 30.5t-144.5 82t-81 115t-27 134.5zM385 395q0 -64 47 -96.5t154 -32.5h213l145 832h-211 q-114 0 -178.5 -46t-79.5 -130l-86 -480q-4 -32 -4 -47z" />
<glyph unicode="&#x153;" horiz-adv-x="1574" d="M51 313q0 35 6 70l41 231q18 101 50 172t90 125t149 80.5t219 26.5q66 0 143 -24t132 -72q127 96 297 96q165 0 260.5 -80t95.5 -219q0 -81 -25 -137.5t-62.5 -92.5t-121 -62.5t-158 -41t-215.5 -35.5q-10 -56 -10 -67q0 -68 90 -68q77 0 185 25t200 65l56 -209 q-97 -54 -219 -85t-238 -31q-71 0 -146 23t-120 65q-72 -41 -144 -64.5t-168 -23.5q-191 0 -289 93.5t-98 239.5zM342 334q0 -113 139 -113q164 0 189 154l43 248q4 28 4 41q0 112 -139 112q-81 0 -129 -39.5t-60 -113.5l-43 -248q-4 -28 -4 -41zM993 584q26 3 67 8t66 8 q82 10 113 36.5t31 80.5q0 36 -30.5 56t-86.5 20q-72 0 -103.5 -37t-43.5 -105q-12 -58 -13 -67z" />
<glyph unicode="&#x178;" horiz-adv-x="1095" d="M121 1364h305l152 -631l358 631h346l-606 -971l-68 -393h-303l68 393zM377 1489l39 223h233l-39 -223h-233zM807 1489l39 223h233l-39 -223h-233z" />
<glyph unicode="&#x2c6;" horiz-adv-x="765" d="M215 1225q175 106 332 221q99 -119 239 -234l-90 -122q-95 49 -188 135q-95 -73 -213 -135z" />
<glyph unicode="&#x2dc;" horiz-adv-x="880" d="M215 1210q42 79 105.5 126.5t130.5 47.5q42 0 85.5 -23t81.5 -46t66 -23q34 0 55 20t39 64l123 -61q-41 -96 -94 -146.5t-145 -50.5q-39 0 -73 14t-53.5 31t-45.5 31t-52 14q-23 0 -48 -18t-36.5 -31.5t-34.5 -42.5z" />
<glyph unicode="&#x2000;" horiz-adv-x="897" />
<glyph unicode="&#x2001;" horiz-adv-x="1794" />
<glyph unicode="&#x2002;" horiz-adv-x="897" />
<glyph unicode="&#x2003;" horiz-adv-x="1794" />
<glyph unicode="&#x2004;" horiz-adv-x="598" />
<glyph unicode="&#x2005;" horiz-adv-x="448" />
<glyph unicode="&#x2006;" horiz-adv-x="299" />
<glyph unicode="&#x2007;" horiz-adv-x="299" />
<glyph unicode="&#x2008;" horiz-adv-x="224" />
<glyph unicode="&#x2009;" horiz-adv-x="358" />
<glyph unicode="&#x200a;" horiz-adv-x="99" />
<glyph unicode="&#x2010;" horiz-adv-x="684" d="M70 451l43 245h520l-43 -245h-520z" />
<glyph unicode="&#x2011;" horiz-adv-x="684" d="M70 451l43 245h520l-43 -245h-520z" />
<glyph unicode="&#x2012;" horiz-adv-x="684" d="M70 451l43 245h520l-43 -245h-520z" />
<glyph unicode="&#x2013;" horiz-adv-x="929" d="M70 451l43 245h766l-43 -245h-766z" />
<glyph unicode="&#x2014;" horiz-adv-x="1236" d="M70 451l43 245h1073l-43 -245h-1073z" />
<glyph unicode="&#x2018;" horiz-adv-x="550" d="M174 797l66 364l227 283l104 -84l-157 -223h108l-59 -340h-289z" />
<glyph unicode="&#x2019;" horiz-adv-x="550" d="M184 842l158 223h-109l60 340h289l-66 -365l-227 -282z" />
<glyph unicode="&#x201a;" horiz-adv-x="561" d="M0 -223l158 223h-109l60 340h288l-65 -365l-228 -282z" />
<glyph unicode="&#x201c;" horiz-adv-x="995" d="M174 797l66 364l227 283l104 -84l-157 -223h108l-59 -340h-289zM618 797l66 364l227 283l105 -84l-158 -223h109l-60 -340h-289z" />
<glyph unicode="&#x201d;" horiz-adv-x="995" d="M184 842l158 223h-109l60 340h289l-66 -365l-227 -282zM629 842l157 223h-108l59 340h289l-65 -365l-228 -282z" />
<glyph unicode="&#x201e;" horiz-adv-x="1005" d="M0 -223l158 223h-109l60 340h288l-65 -365l-228 -282zM444 -223l158 223h-108l59 340h289l-66 -365l-227 -282z" />
<glyph unicode="&#x2022;" horiz-adv-x="724" d="M113 662q0 114 79 194t191 80t191 -80t79 -194t-79 -194.5t-191 -80.5t-191 80.5t-79 194.5z" />
<glyph unicode="&#x2026;" horiz-adv-x="1695" d="M49 0l60 340h288l-59 -340h-289zM614 0l60 340h289l-60 -340h-289zM1180 0l59 340h289l-60 -340h-288z" />
<glyph unicode="&#x202f;" horiz-adv-x="358" />
<glyph unicode="&#x2039;" horiz-adv-x="573" d="M51 500l314 393l174 -145l-211 -248l118 -293l-202 -101z" />
<glyph unicode="&#x203a;" horiz-adv-x="571" d="M45 252l211 248l-119 293l203 100l192 -393l-313 -394z" />
<glyph unicode="&#x205f;" horiz-adv-x="448" />
<glyph unicode="&#x20ac;" horiz-adv-x="1073" d="M31 438l28 156h160l25 135h-164l29 156h163l15 86q61 372 506 372q174 0 352 -53l-55 -243q-60 17 -145 27.5t-150 10.5q-105 0 -150.5 -30t-60.5 -115l-11 -55h332l-28 -156h-330l-25 -135h334l-29 -156h-331l-11 -61q-2 -12 -2 -31q0 -57 38.5 -82.5t133.5 -25.5 q129 0 283 32l12 -243q-143 -47 -340 -47q-215 0 -323.5 90t-108.5 241q0 47 6 80l9 47h-162z" />
<glyph unicode="&#x2122;" horiz-adv-x="927" d="M164 1280v84h311v-84h-110v-334h-93v334h-108zM535 946l16 418h92l98 -264l97 264h94l16 -418h-88l-4 246l-72 -191h-88l-71 187l-4 -242h-86z" />
<glyph unicode="&#x25fc;" horiz-adv-x="1013" d="M0 0v1014h1014v-1014h-1014z" />
</font>
</defs>
</svg>
