<?xml version="1.0" standalone="no"?>
<!DOCTYPE svg PUBLIC "-//W3C//DTD SVG 1.1//EN" "http://www.w3.org/Graphics/SVG/1.1/DTD/svg11.dtd" >
<svg xmlns="http://www.w3.org/2000/svg" xmlns:xlink="http://www.w3.org/1999/xlink" version="1.1">
<metadata></metadata>
<defs>
<font id="klavika_arrowslight" horiz-adv-x="577" >
<font-face units-per-em="2048" ascent="1638" descent="-410" />
<missing-glyph horiz-adv-x="450" />
<glyph unicode="&#xfb01;" d="M225 821v176h127v-176h-127z" />
<glyph unicode="&#xfb02;" d="M225 821v176h127v-176h-127z" />
<glyph horiz-adv-x="0" />
<glyph horiz-adv-x="682" />
<glyph unicode=" "  horiz-adv-x="450" />
<glyph unicode="&#x09;" horiz-adv-x="450" />
<glyph unicode="&#xa0;" horiz-adv-x="450" />
<glyph unicode="!" horiz-adv-x="1609" d="M102 682q0 190 94.5 352t256.5 256t352 94q114 0 221 -35.5t193.5 -100.5t151.5 -151.5t100.5 -193.5t35.5 -221t-35.5 -221t-100.5 -193.5t-151.5 -151.5t-193.5 -100.5t-221 -35.5q-190 0 -352 94t-256.5 256t-94.5 352zM451 395l67 -69l287 288l287 -288l67 69 l-287 287l287 287l-67 67l-287 -286l-287 286l-67 -67l286 -287z" />
<glyph unicode="&#x22;" d="M225 821v176h127v-176h-127z" />
<glyph unicode="#" horiz-adv-x="1609" d="M102 682q0 190 94.5 352t256.5 256t352 94q114 0 221 -35.5t193.5 -100.5t151.5 -151.5t100.5 -193.5t35.5 -221t-35.5 -221t-100.5 -193.5t-151.5 -151.5t-193.5 -100.5t-221 -35.5q-190 0 -352 94t-256.5 256t-94.5 352zM354 635h404v-406h94v406h405v94h-405v406h-94 v-406h-404v-94z" />
<glyph unicode="$" horiz-adv-x="1609" d="M102 682q0 190 94.5 352t256.5 256t352 94q114 0 221 -35.5t193.5 -100.5t151.5 -151.5t100.5 -193.5t35.5 -221t-35.5 -221t-100.5 -193.5t-151.5 -151.5t-193.5 -100.5t-221 -35.5q-190 0 -352 94t-256.5 256t-94.5 352zM354 635h404v94h-404v-94zM758 229h94v406h-94 v-406zM758 729h94v406h-94v-406zM852 635h405v94h-405v-94z" />
<glyph unicode="%" d="M225 821v176h127v-176h-127z" />
<glyph unicode="&#x26;" d="M225 821v176h127v-176h-127z" />
<glyph unicode="'" d="M225 821v176h127v-176h-127z" />
<glyph unicode="(" horiz-adv-x="1753" d="M195 0v1364h1364v-1364h-1364z" />
<glyph unicode=")" horiz-adv-x="1753" d="M195 0v1364h1364v-1364h-1364zM287 92h1179v1180h-1179v-1180z" />
<glyph unicode="*" d="M225 821v176h127v-176h-127z" />
<glyph unicode="+" d="M225 821v176h127v-176h-127z" />
<glyph unicode="," d="M225 821v176h127v-176h-127z" />
<glyph unicode="-" d="M225 821v176h127v-176h-127z" />
<glyph unicode="." d="M225 821v176h127v-176h-127z" />
<glyph unicode="/" d="M225 821v176h127v-176h-127z" />
<glyph unicode="0" horiz-adv-x="1650" d="M72 682l1405 702v-1404z" />
<glyph unicode="1" horiz-adv-x="1650" d="M174 -20v1404l1405 -702z" />
<glyph unicode="2" horiz-adv-x="1648" d="M72 682l1403 702v-1404zM252 682l1137 -561v1122z" />
<glyph unicode="3" horiz-adv-x="1648" d="M174 -20v1404l1403 -702zM260 121l1137 561l-1137 561v-1122z" />
<glyph unicode="4" horiz-adv-x="1273" d="M72 498l1028 520v-1041z" />
<glyph unicode="5" horiz-adv-x="1273" d="M174 -23v1041l1028 -520z" />
<glyph unicode="6" horiz-adv-x="1273" d="M72 498l1028 520v-1041zM238 498l782 -392v781z" />
<glyph unicode="7" horiz-adv-x="1273" d="M174 -23v1041l1028 -520zM254 106l782 392l-782 389v-781z" />
<glyph unicode="8" horiz-adv-x="1753" d="M195 0v1364h1364v-1364h-1364zM287 92h1120l-1120 1118v-1118zM348 1272l1118 -1116v1116h-1118z" />
<glyph unicode="9" horiz-adv-x="1386" d="M195 0v997h997v-997h-997zM281 86h766l-766 766v-766zM340 911l766 -766v766h-766z" />
<glyph unicode=":" d="M225 821v176h127v-176h-127z" />
<glyph unicode=";" d="M225 821v176h127v-176h-127z" />
<glyph unicode="&#x3c;" horiz-adv-x="1386" d="M195 0v997h997v-997h-997z" />
<glyph unicode="=" d="M225 821v176h127v-176h-127z" />
<glyph unicode="&#x3e;" horiz-adv-x="1386" d="M195 0v997h997v-997h-997zM281 86h825v825h-825v-825z" />
<glyph unicode="?" d="M225 821v176h127v-176h-127z" />
<glyph unicode="@" horiz-adv-x="1609" d="M102 682q0 190 94.5 352t256.5 256t352 94q114 0 221 -35.5t193.5 -100.5t151.5 -151.5t100.5 -193.5t35.5 -221t-35.5 -221t-100.5 -193.5t-151.5 -151.5t-193.5 -100.5t-221 -35.5q-190 0 -352 94t-256.5 256t-94.5 352zM451 395l67 -69l287 288l-68 68zM451 969 l286 -287l68 68l-287 286zM805 614l287 -288l67 69l-287 287zM805 750l67 -68l287 287l-67 67z" />
<glyph unicode="A" horiz-adv-x="1859" d="M102 682l682 682l68 -68l-565 -565h1429v-98h-1429l565 -565l-68 -68z" />
<glyph unicode="B" horiz-adv-x="1859" d="M143 633v98h1430l-565 565l67 68l682 -682l-682 -682l-67 68l565 565h-1430z" />
<glyph unicode="C" horiz-adv-x="1505" d="M195 399v965h964v-96h-799l1012 -1012l-69 -70l-1012 1012v-799h-96z" />
<glyph unicode="D" horiz-adv-x="1505" d="M133 256l1012 1012h-799v96h965v-965h-97v799l-1011 -1012z" />
<glyph unicode="E" horiz-adv-x="1505" d="M195 0v965h96v-799l1012 1012l69 -70l-1012 -1012h799v-96h-964z" />
<glyph unicode="F" horiz-adv-x="1505" d="M133 1108l70 70l1011 -1012v799h97v-965h-965v96h799z" />
<glyph unicode="G" horiz-adv-x="1589" d="M113 682l682 682l682 -682l-68 -68l-565 566v-1583h-99v1583l-565 -566z" />
<glyph unicode="H" horiz-adv-x="1589" d="M113 279l67 67l565 -565v1583h99v-1583l565 565l68 -67l-682 -682z" />
<glyph unicode="I" horiz-adv-x="1927" d="M102 682l682 682l68 -68l-614 -614l614 -614l-68 -68zM666 635v96h1118v-96h-1118z" />
<glyph unicode="J" horiz-adv-x="1927" d="M143 635v96h1119v-96h-1119zM1075 68l615 614l-615 614l68 68l682 -682l-682 -682z" />
<glyph unicode="K" horiz-adv-x="1552" d="M195 399v965h964v-96h-868v-869h-96zM559 932l70 67l790 -790l-69 -68z" />
<glyph unicode="L" horiz-adv-x="1552" d="M133 209l791 790l69 -67l-790 -791zM393 1268v96h965v-965h-96v869h-869z" />
<glyph unicode="M" horiz-adv-x="1552" d="M195 0v965h96v-869h868v-96h-964zM559 432l791 791l69 -68l-790 -790z" />
<glyph unicode="N" horiz-adv-x="1552" d="M133 1155l70 68l790 -791l-69 -67zM393 0v96h869v869h96v-965h-965z" />
<glyph unicode="O" horiz-adv-x="1589" d="M113 702l682 682l682 -682l-68 -67l-614 614l-615 -614zM748 -403v1224h96v-1224h-96z" />
<glyph unicode="P" horiz-adv-x="1589" d="M113 279l67 67l615 -614l614 614l68 -67l-682 -682zM748 160v1204h96v-1204h-96z" />
<glyph unicode="Q" horiz-adv-x="1609" d="M102 682q0 190 94.5 352t256.5 256t352 94q114 0 221 -35.5t193.5 -100.5t151.5 -151.5t100.5 -193.5t35.5 -221t-35.5 -221t-100.5 -193.5t-151.5 -151.5t-193.5 -100.5t-221 -35.5q-190 0 -352 94t-256.5 256t-94.5 352zM377 682l428 -428l67 68l-311 311h682v98h-682 l311 311l-67 68z" />
<glyph unicode="R" horiz-adv-x="1609" d="M102 682q0 190 94.5 352t256.5 256t352 94q114 0 221 -35.5t193.5 -100.5t151.5 -151.5t100.5 -193.5t35.5 -221t-35.5 -221t-100.5 -193.5t-151.5 -151.5t-193.5 -100.5t-221 -35.5q-190 0 -352 94t-256.5 256t-94.5 352zM367 633h682l-312 -311l68 -68l428 428 l-428 428l-68 -68l312 -311h-682v-98z" />
<glyph unicode="S" horiz-adv-x="1609" d="M102 682q0 190 94.5 352t256.5 256t352 94q114 0 221 -35.5t193.5 -100.5t151.5 -151.5t100.5 -193.5t35.5 -221t-35.5 -221t-100.5 -193.5t-151.5 -151.5t-193.5 -100.5t-221 -35.5q-190 0 -352 94t-256.5 256t-94.5 352zM508 383h94v440l483 -483l70 70l-483 483h440 v94h-604v-604z" />
<glyph unicode="T" horiz-adv-x="1609" d="M102 682q0 190 94.5 352t256.5 256t352 94q114 0 221 -35.5t193.5 -100.5t151.5 -151.5t100.5 -193.5t35.5 -221t-35.5 -221t-100.5 -193.5t-151.5 -151.5t-193.5 -100.5t-221 -35.5q-190 0 -352 94t-256.5 256t-94.5 352zM455 410l69 -70l484 483v-440h94v604h-604v-94 h440z" />
<glyph unicode="U" horiz-adv-x="1609" d="M102 682q0 190 94.5 352t256.5 256t352 94q114 0 221 -35.5t193.5 -100.5t151.5 -151.5t100.5 -193.5t35.5 -221t-35.5 -221t-100.5 -193.5t-151.5 -151.5t-193.5 -100.5t-221 -35.5q-190 0 -352 94t-256.5 256t-94.5 352zM508 383h604v94h-440l483 484l-70 69l-483 -483 v440h-94v-604z" />
<glyph unicode="V" horiz-adv-x="1609" d="M102 682q0 190 94.5 352t256.5 256t352 94q114 0 221 -35.5t193.5 -100.5t151.5 -151.5t100.5 -193.5t35.5 -221t-35.5 -221t-100.5 -193.5t-151.5 -151.5t-193.5 -100.5t-221 -35.5q-190 0 -352 94t-256.5 256t-94.5 352zM455 961l483 -484h-440v-94h604v604h-94v-440 l-484 483z" />
<glyph unicode="W" horiz-adv-x="1609" d="M102 682q0 190 94.5 352t256.5 256t352 94q114 0 221 -35.5t193.5 -100.5t151.5 -151.5t100.5 -193.5t35.5 -221t-35.5 -221t-100.5 -193.5t-151.5 -151.5t-193.5 -100.5t-221 -35.5q-190 0 -352 94t-256.5 256t-94.5 352zM377 698l67 -67l312 311v-682h98v682l311 -311 l68 67l-428 428z" />
<glyph unicode="X" horiz-adv-x="1609" d="M102 682q0 190 94.5 352t256.5 256t352 94q114 0 221 -35.5t193.5 -100.5t151.5 -151.5t100.5 -193.5t35.5 -221t-35.5 -221t-100.5 -193.5t-151.5 -151.5t-193.5 -100.5t-221 -35.5q-190 0 -352 94t-256.5 256t-94.5 352zM377 666l428 -428l428 428l-68 67l-311 -311 v682h-98v-682l-312 311z" />
<glyph unicode="Y" horiz-adv-x="1753" d="M195 0v1364h1364v-1364h-1364zM287 92h1120l-1120 1118v-1118zM348 1272l1118 -1116v1116h-1118z" />
<glyph unicode="Z" horiz-adv-x="1386" d="M195 0v997h997v-997h-997zM281 86h766l-766 766v-766zM340 911l766 -766v766h-766z" />
<glyph unicode="[" horiz-adv-x="1609" d="M113 0l692 1384l692 -1384h-1384z" />
<glyph unicode="\" horiz-adv-x="1243" d="M113 0l508 1018l509 -1018h-1017z" />
<glyph unicode="]" horiz-adv-x="1609" d="M113 1364h1384l-692 -1384z" />
<glyph unicode="^" horiz-adv-x="1243" d="M113 997h1017l-509 -1017z" />
<glyph unicode="_" horiz-adv-x="1243" d="M113 0l508 1018l509 -1018h-1017zM242 80h759l-378 764z" />
<glyph unicode="`" horiz-adv-x="1243" d="M113 997h1017l-509 -1017zM242 918l381 -764l378 764h-759z" />
<glyph unicode="a" horiz-adv-x="1433" d="M82 682l506 506l67 -68l-389 -389h1024v-98h-1024l389 -389l-67 -68z" />
<glyph unicode="b" horiz-adv-x="1433" d="M143 633v98h1024l-389 389l68 68l506 -506l-506 -506l-68 68l389 389h-1024z" />
<glyph unicode="c" horiz-adv-x="1198" d="M174 647v717h717v-96h-551l725 -725l-70 -70l-725 725v-551h-96z" />
<glyph unicode="d" horiz-adv-x="1198" d="M133 543l725 725h-551v96h717v-717h-96v551l-725 -725z" />
<glyph unicode="e" horiz-adv-x="1198" d="M174 0v717h96v-551l725 725l70 -70l-725 -725h551v-96h-717z" />
<glyph unicode="f" horiz-adv-x="1198" d="M133 821l70 70l725 -725v551h96v-717h-717v96h551z" />
<glyph unicode="g" horiz-adv-x="1236" d="M113 879l505 505l506 -505l-67 -68l-389 389v-1200h-99v1200l-389 -389z" />
<glyph unicode="h" horiz-adv-x="1236" d="M113 485l67 68l389 -389v1200h99v-1200l389 389l67 -68l-506 -505z" />
<glyph unicode="i" horiz-adv-x="1437" d="M82 682l506 506l67 -68l-438 -438l438 -438l-67 -68zM559 635v96h735v-96h-735z" />
<glyph unicode="j" horiz-adv-x="1437" d="M143 635v96h736v-96h-736zM782 244l439 438l-439 438l68 68l506 -506l-506 -506z" />
<glyph unicode="k" horiz-adv-x="1198" d="M174 649v715h715v-94h-621v-621h-94zM477 993l68 70l520 -520l-68 -70z" />
<glyph unicode="l" horiz-adv-x="1198" d="M133 543l520 520l68 -70l-520 -520zM309 1270v94h715v-715h-94v621h-621z" />
<glyph unicode="m" horiz-adv-x="1198" d="M174 0v715h94v-621h621v-94h-715zM477 371l520 520l68 -70l-520 -520z" />
<glyph unicode="n" horiz-adv-x="1198" d="M133 821l68 70l520 -520l-68 -70zM309 0v94h621v621h94v-715h-715z" />
<glyph unicode="o" horiz-adv-x="1236" d="M113 879l505 505l506 -505l-67 -68l-439 438l-438 -438zM571 0v907h97v-907h-97z" />
<glyph unicode="p" horiz-adv-x="1236" d="M113 485l67 68l438 -438l439 438l67 -68l-506 -505zM571 457v907h97v-907h-97z" />
<glyph unicode="q" horiz-adv-x="1609" d="M102 682q0 190 94.5 352t256.5 256t352 94q114 0 221 -35.5t193.5 -100.5t151.5 -151.5t100.5 -193.5t35.5 -221t-35.5 -221t-100.5 -193.5t-151.5 -151.5t-193.5 -100.5t-221 -35.5q-190 0 -352 94t-256.5 256t-94.5 352zM371 682l428 -428l67 68l-360 360l360 360 l-67 68zM733 635h524v96h-524v-96z" />
<glyph unicode="r" horiz-adv-x="1609" d="M102 682q0 190 94.5 352t256.5 256t352 94q114 0 221 -35.5t193.5 -100.5t151.5 -151.5t100.5 -193.5t35.5 -221t-35.5 -221t-100.5 -193.5t-151.5 -151.5t-193.5 -100.5t-221 -35.5q-190 0 -352 94t-256.5 256t-94.5 352zM352 635h525v96h-525v-96zM743 322l68 -68 l428 428l-428 428l-68 -68l361 -360z" />
<glyph unicode="s" horiz-adv-x="1609" d="M102 682q0 190 94.5 352t256.5 256t352 94q114 0 221 -35.5t193.5 -100.5t151.5 -151.5t100.5 -193.5t35.5 -221t-35.5 -221t-100.5 -193.5t-151.5 -151.5t-193.5 -100.5t-221 -35.5q-190 0 -352 94t-256.5 256t-94.5 352zM496 410h96v510h510v96h-606v-606zM719 725 l371 -371l67 70l-371 371z" />
<glyph unicode="t" horiz-adv-x="1609" d="M102 682q0 190 94.5 352t256.5 256t352 94q114 0 221 -35.5t193.5 -100.5t151.5 -151.5t100.5 -193.5t35.5 -221t-35.5 -221t-100.5 -193.5t-151.5 -151.5t-193.5 -100.5t-221 -35.5q-190 0 -352 94t-256.5 256t-94.5 352zM453 424l67 -70l371 371l-68 70zM508 920h510 v-510h96v606h-606v-96z" />
<glyph unicode="u" horiz-adv-x="1609" d="M102 682q0 190 94.5 352t256.5 256t352 94q114 0 221 -35.5t193.5 -100.5t151.5 -151.5t100.5 -193.5t35.5 -221t-35.5 -221t-100.5 -193.5t-151.5 -151.5t-193.5 -100.5t-221 -35.5q-190 0 -352 94t-256.5 256t-94.5 352zM506 377h606v96h-510v510h-96v-606zM729 668 l68 -70l370 371l-67 69z" />
<glyph unicode="v" horiz-adv-x="1609" d="M102 682q0 190 94.5 352t256.5 256t352 94q114 0 221 -35.5t193.5 -100.5t151.5 -151.5t100.5 -193.5t35.5 -221t-35.5 -221t-100.5 -193.5t-151.5 -151.5t-193.5 -100.5t-221 -35.5q-190 0 -352 94t-256.5 256t-94.5 352zM442 969l371 -371l68 70l-371 370zM498 377h606 v606h-96v-510h-510v-96z" />
<glyph unicode="w" horiz-adv-x="1609" d="M102 682q0 190 94.5 352t256.5 256t352 94q114 0 221 -35.5t193.5 -100.5t151.5 -151.5t100.5 -193.5t35.5 -221t-35.5 -221t-100.5 -193.5t-151.5 -151.5t-193.5 -100.5t-221 -35.5q-190 0 -352 94t-256.5 256t-94.5 352zM377 709l67 -68l361 360l360 -360l68 68 l-428 428zM758 250h96v524h-96v-524z" />
<glyph unicode="x" horiz-adv-x="1609" d="M102 682q0 190 94.5 352t256.5 256t352 94q114 0 221 -35.5t193.5 -100.5t151.5 -151.5t100.5 -193.5t35.5 -221t-35.5 -221t-100.5 -193.5t-151.5 -151.5t-193.5 -100.5t-221 -35.5q-190 0 -352 94t-256.5 256t-94.5 352zM377 655l428 -428l428 428l-68 68l-360 -361 l-361 361zM758 590h96v524h-96v-524z" />
<glyph unicode="y" horiz-adv-x="1753" d="M195 0v1364h1364v-1364h-1364zM287 92h1120l-1120 1118v-1118zM348 1272l1118 -1116v1116h-1118z" />
<glyph unicode="z" horiz-adv-x="1386" d="M195 0v997h997v-997h-997zM281 86h766l-766 766v-766zM340 911l766 -766v766h-766z" />
<glyph unicode="{" horiz-adv-x="1607" d="M113 0l692 1384l690 -1384h-1382zM250 86h1108l-553 1106z" />
<glyph unicode="|" d="M225 821v176h127v-176h-127z" />
<glyph unicode="}" horiz-adv-x="1607" d="M113 1364h1382l-690 -1384zM250 1278l555 -1106l553 1106h-1108z" />
<glyph unicode="~" d="M225 821v176h127v-176h-127z" />
<glyph unicode="&#xa1;" d="M225 821v176h127v-176h-127z" />
<glyph unicode="&#xa2;" d="M225 821v176h127v-176h-127z" />
<glyph unicode="&#xa3;" d="M225 821v176h127v-176h-127z" />
<glyph unicode="&#xa4;" horiz-adv-x="1105" d="M154 252l127 127q-41 61 -41 160v295q0 96 41 157l-127 129l77 78l134 -135q70 37 188 37q110 0 186 -37l135 135l78 -78l-129 -129q41 -61 41 -157v-295q0 -97 -41 -158l129 -129l-78 -78l-135 135q-70 -37 -186 -37t-188 35l-134 -133zM350 565q0 -103 40.5 -146.5 t162.5 -43.5q121 0 161 43.5t40 146.5v242q0 103 -40 146.5t-161 43.5q-122 0 -162.5 -43.5t-40.5 -146.5v-242z" />
<glyph unicode="&#xa5;" d="M225 821v176h127v-176h-127z" />
<glyph unicode="&#xa6;" d="M225 821v176h127v-176h-127z" />
<glyph unicode="&#xa7;" d="M225 821v176h127v-176h-127z" />
<glyph unicode="&#xa8;" d="M225 821v176h127v-176h-127z" />
<glyph unicode="&#xa9;" d="M225 821v176h127v-176h-127z" />
<glyph unicode="&#xaa;" d="M225 821v176h127v-176h-127z" />
<glyph unicode="&#xab;" d="M225 821v176h127v-176h-127z" />
<glyph unicode="&#xac;" d="M225 821v176h127v-176h-127z" />
<glyph unicode="&#xad;" d="M225 821v176h127v-176h-127z" />
<glyph unicode="&#xae;" d="M225 821v176h127v-176h-127z" />
<glyph unicode="&#xaf;" d="M225 821v176h127v-176h-127z" />
<glyph unicode="&#xb0;" d="M225 821v176h127v-176h-127z" />
<glyph unicode="&#xb1;" d="M225 821v176h127v-176h-127z" />
<glyph unicode="&#xb2;" d="M225 821v176h127v-176h-127z" />
<glyph unicode="&#xb3;" d="M225 821v176h127v-176h-127z" />
<glyph unicode="&#xb4;" d="M225 821v176h127v-176h-127z" />
<glyph unicode="&#xb5;" d="M225 821v176h127v-176h-127z" />
<glyph unicode="&#xb6;" d="M225 821v176h127v-176h-127z" />
<glyph unicode="&#xb7;" d="M225 821v176h127v-176h-127z" />
<glyph unicode="&#xb8;" d="M225 821v176h127v-176h-127z" />
<glyph unicode="&#xb9;" d="M225 821v176h127v-176h-127z" />
<glyph unicode="&#xba;" d="M225 821v176h127v-176h-127z" />
<glyph unicode="&#xbb;" d="M225 821v176h127v-176h-127z" />
<glyph unicode="&#xbc;" d="M225 821v176h127v-176h-127z" />
<glyph unicode="&#xbd;" d="M225 821v176h127v-176h-127z" />
<glyph unicode="&#xbe;" d="M225 821v176h127v-176h-127z" />
<glyph unicode="&#xbf;" d="M225 821v176h127v-176h-127z" />
<glyph unicode="&#xc0;" d="M225 821v176h127v-176h-127z" />
<glyph unicode="&#xc1;" d="M225 821v176h127v-176h-127z" />
<glyph unicode="&#xc2;" d="M225 821v176h127v-176h-127z" />
<glyph unicode="&#xc3;" d="M225 821v176h127v-176h-127z" />
<glyph unicode="&#xc4;" d="M225 821v176h127v-176h-127z" />
<glyph unicode="&#xc5;" d="M225 821v176h127v-176h-127z" />
<glyph unicode="&#xc6;" d="M225 821v176h127v-176h-127z" />
<glyph unicode="&#xc7;" d="M225 821v176h127v-176h-127z" />
<glyph unicode="&#xc8;" d="M225 821v176h127v-176h-127z" />
<glyph unicode="&#xc9;" d="M225 821v176h127v-176h-127z" />
<glyph unicode="&#xca;" d="M225 821v176h127v-176h-127z" />
<glyph unicode="&#xcb;" d="M225 821v176h127v-176h-127z" />
<glyph unicode="&#xcc;" d="M225 821v176h127v-176h-127z" />
<glyph unicode="&#xcd;" d="M225 821v176h127v-176h-127z" />
<glyph unicode="&#xce;" d="M225 821v176h127v-176h-127z" />
<glyph unicode="&#xcf;" d="M225 821v176h127v-176h-127z" />
<glyph unicode="&#xd0;" d="M225 821v176h127v-176h-127z" />
<glyph unicode="&#xd1;" d="M225 821v176h127v-176h-127z" />
<glyph unicode="&#xd2;" d="M225 821v176h127v-176h-127z" />
<glyph unicode="&#xd3;" d="M225 821v176h127v-176h-127z" />
<glyph unicode="&#xd4;" d="M225 821v176h127v-176h-127z" />
<glyph unicode="&#xd5;" d="M225 821v176h127v-176h-127z" />
<glyph unicode="&#xd6;" d="M225 821v176h127v-176h-127z" />
<glyph unicode="&#xd7;" d="M225 821v176h127v-176h-127z" />
<glyph unicode="&#xd8;" d="M225 821v176h127v-176h-127z" />
<glyph unicode="&#xd9;" d="M225 821v176h127v-176h-127z" />
<glyph unicode="&#xda;" d="M225 821v176h127v-176h-127z" />
<glyph unicode="&#xdb;" d="M225 821v176h127v-176h-127z" />
<glyph unicode="&#xdc;" d="M225 821v176h127v-176h-127z" />
<glyph unicode="&#xdd;" d="M225 821v176h127v-176h-127z" />
<glyph unicode="&#xde;" d="M225 821v176h127v-176h-127z" />
<glyph unicode="&#xdf;" d="M225 821v176h127v-176h-127z" />
<glyph unicode="&#xe0;" d="M225 821v176h127v-176h-127z" />
<glyph unicode="&#xe1;" d="M225 821v176h127v-176h-127z" />
<glyph unicode="&#xe2;" d="M225 821v176h127v-176h-127z" />
<glyph unicode="&#xe3;" d="M225 821v176h127v-176h-127z" />
<glyph unicode="&#xe4;" d="M225 821v176h127v-176h-127z" />
<glyph unicode="&#xe5;" d="M225 821v176h127v-176h-127z" />
<glyph unicode="&#xe6;" d="M225 821v176h127v-176h-127z" />
<glyph unicode="&#xe7;" d="M225 821v176h127v-176h-127z" />
<glyph unicode="&#xe8;" d="M225 821v176h127v-176h-127z" />
<glyph unicode="&#xe9;" d="M225 821v176h127v-176h-127z" />
<glyph unicode="&#xea;" d="M225 821v176h127v-176h-127z" />
<glyph unicode="&#xeb;" d="M225 821v176h127v-176h-127z" />
<glyph unicode="&#xec;" d="M225 821v176h127v-176h-127z" />
<glyph unicode="&#xed;" d="M225 821v176h127v-176h-127z" />
<glyph unicode="&#xee;" d="M225 821v176h127v-176h-127z" />
<glyph unicode="&#xef;" d="M225 821v176h127v-176h-127z" />
<glyph unicode="&#xf0;" d="M225 821v176h127v-176h-127z" />
<glyph unicode="&#xf1;" d="M225 821v176h127v-176h-127z" />
<glyph unicode="&#xf2;" d="M225 821v176h127v-176h-127z" />
<glyph unicode="&#xf3;" d="M225 821v176h127v-176h-127z" />
<glyph unicode="&#xf4;" d="M225 821v176h127v-176h-127z" />
<glyph unicode="&#xf5;" d="M225 821v176h127v-176h-127z" />
<glyph unicode="&#xf6;" d="M225 821v176h127v-176h-127z" />
<glyph unicode="&#xf7;" d="M225 821v176h127v-176h-127z" />
<glyph unicode="&#xf8;" d="M225 821v176h127v-176h-127z" />
<glyph unicode="&#xf9;" d="M225 821v176h127v-176h-127z" />
<glyph unicode="&#xfa;" d="M225 821v176h127v-176h-127z" />
<glyph unicode="&#xfb;" d="M225 821v176h127v-176h-127z" />
<glyph unicode="&#xfc;" d="M225 821v176h127v-176h-127z" />
<glyph unicode="&#xfd;" d="M225 821v176h127v-176h-127z" />
<glyph unicode="&#xfe;" d="M225 821v176h127v-176h-127z" />
<glyph unicode="&#xff;" d="M225 821v176h127v-176h-127z" />
<glyph unicode="&#x152;" d="M225 821v176h127v-176h-127z" />
<glyph unicode="&#x153;" d="M225 821v176h127v-176h-127z" />
<glyph unicode="&#x178;" d="M225 821v176h127v-176h-127z" />
<glyph unicode="&#x2c6;" d="M225 821v176h127v-176h-127z" />
<glyph unicode="&#x2dc;" d="M225 821v176h127v-176h-127z" />
<glyph unicode="&#x2000;" horiz-adv-x="692" />
<glyph unicode="&#x2001;" horiz-adv-x="1384" />
<glyph unicode="&#x2002;" horiz-adv-x="692" />
<glyph unicode="&#x2003;" horiz-adv-x="1384" />
<glyph unicode="&#x2004;" horiz-adv-x="461" />
<glyph unicode="&#x2005;" horiz-adv-x="346" />
<glyph unicode="&#x2006;" horiz-adv-x="230" />
<glyph unicode="&#x2007;" horiz-adv-x="230" />
<glyph unicode="&#x2008;" horiz-adv-x="173" />
<glyph unicode="&#x2009;" horiz-adv-x="276" />
<glyph unicode="&#x200a;" horiz-adv-x="76" />
<glyph unicode="&#x2010;" d="M225 821v176h127v-176h-127z" />
<glyph unicode="&#x2011;" d="M225 821v176h127v-176h-127z" />
<glyph unicode="&#x2012;" d="M225 821v176h127v-176h-127z" />
<glyph unicode="&#x2013;" d="M225 821v176h127v-176h-127z" />
<glyph unicode="&#x2014;" d="M225 821v176h127v-176h-127z" />
<glyph unicode="&#x2018;" d="M225 821v176h127v-176h-127z" />
<glyph unicode="&#x2019;" d="M225 821v176h127v-176h-127z" />
<glyph unicode="&#x201a;" d="M225 821v176h127v-176h-127z" />
<glyph unicode="&#x201c;" d="M225 821v176h127v-176h-127z" />
<glyph unicode="&#x201d;" d="M225 821v176h127v-176h-127z" />
<glyph unicode="&#x201e;" d="M225 821v176h127v-176h-127z" />
<glyph unicode="&#x2022;" d="M225 821v176h127v-176h-127z" />
<glyph unicode="&#x2026;" d="M225 821v176h127v-176h-127z" />
<glyph unicode="&#x202f;" horiz-adv-x="276" />
<glyph unicode="&#x2039;" d="M225 821v176h127v-176h-127z" />
<glyph unicode="&#x203a;" d="M225 821v176h127v-176h-127z" />
<glyph unicode="&#x205f;" horiz-adv-x="346" />
<glyph unicode="&#x20ac;" d="M225 821v176h127v-176h-127z" />
<glyph unicode="&#x2122;" d="M225 821v176h127v-176h-127z" />
<glyph unicode="&#x25fc;" horiz-adv-x="1382" d="M0 0v1382h1382v-1382h-1382z" />
</font>
</defs>
</svg>
