<?xml version="1.0" standalone="no"?>
<!DOCTYPE svg PUBLIC "-//W3C//DTD SVG 1.1//EN" "http://www.w3.org/Graphics/SVG/1.1/DTD/svg11.dtd" >
<svg xmlns="http://www.w3.org/2000/svg" xmlns:xlink="http://www.w3.org/1999/xlink" version="1.1">
<metadata></metadata>
<defs>
<font id="klavika_mediumplain" horiz-adv-x="1005" >
<font-face units-per-em="2048" ascent="1638" descent="-410" />
<missing-glyph horiz-adv-x="430" />
<glyph unicode="&#xfb01;" horiz-adv-x="1280" d="M51 799v198h160v140q0 157 76.5 233t240.5 76q86 0 197 -27l-27 -192q-60 14 -125 14q-69 0 -90.5 -28t-21.5 -91v-125h676v-997h-250v799h-426v-799h-250v799h-160zM887 1139v288h250v-288h-250z" />
<glyph unicode="&#xfb02;" horiz-adv-x="1280" d="M51 799v198h160v140q0 157 76.5 233t240.5 76q102 0 197 -27l-27 -192q-72 14 -125 14q-69 0 -90.5 -28t-21.5 -91v-125h254l-15 -198h-239v-799h-250v799h-160zM887 0v1405l250 35v-1440h-250z" />
<glyph horiz-adv-x="0" />
<glyph horiz-adv-x="682" />
<glyph unicode=" "  horiz-adv-x="430" />
<glyph unicode="&#x09;" horiz-adv-x="430" />
<glyph unicode="&#xa0;" horiz-adv-x="430" />
<glyph unicode="!" horiz-adv-x="581" d="M164 0v287h254v-287h-254zM166 797v608h250v-608l-51 -355h-148z" />
<glyph unicode="&#x22;" horiz-adv-x="792" d="M123 899v506h178v-506h-178zM492 899v506h178v-506h-178z" />
<glyph unicode="#" horiz-adv-x="1429" d="M102 334l11 172h252l16 325h-258l10 173h256l17 319h186l-17 -319h318l16 319h187l-19 -319h246l-10 -173h-244l-16 -325h250l-11 -172h-248l-16 -334h-184l16 334h-317l-19 -334h-184l16 334h-254zM549 506h319l15 325h-318z" />
<glyph unicode="$" horiz-adv-x="1036" d="M102 47l45 205q174 -55 332 -55q65 0 103.5 8t59.5 29.5t27.5 51t6.5 81.5q0 37 -1.5 56.5t-9 41t-20 32.5t-39 24.5t-60.5 23t-89 22.5q-79 19 -133 37.5t-94 44t-62 52t-35.5 69.5t-17.5 88t-4 115q0 179 77.5 265t266.5 101v230h207v-230q129 -7 241 -34l-26 -215 q-167 34 -334 34q-109 0 -146 -29.5t-37 -127.5q0 -37 0.5 -56t9.5 -39.5t17.5 -28.5t37 -21t55 -20.5t83.5 -23.5q67 -19 116 -35.5t88 -36t64.5 -36t44 -43t28 -47.5t15 -58.5t6.5 -68.5t1 -84q0 -184 -69 -273.5t-247 -109.5v-228h-204v226q-164 10 -304 63z" />
<glyph unicode="%" horiz-adv-x="1796" d="M102 930v164q0 138 73 214t247 76t246.5 -76t72.5 -214v-164q0 -139 -72.5 -215t-246.5 -76t-247 76.5t-73 214.5zM299 915q0 -57 27 -81.5t96 -24.5t96 24.5t27 81.5v193q0 57 -27 81.5t-96 24.5t-96 -24.5t-27 -81.5v-193zM535 43l550 1341l158 -63l-551 -1341z M1044 270v164q0 138 73 214.5t247 76.5t246.5 -76t72.5 -215v-164q0 -138 -72.5 -214t-246.5 -76t-247 76t-73 214zM1241 256q0 -57 27 -81.5t96 -24.5t96 24.5t27 81.5v193q0 57 -27 81.5t-96 24.5t-96 -24.5t-27 -81.5v-193z" />
<glyph unicode="&#x26;" horiz-adv-x="1341" d="M143 315v115q0 210 166 270q-141 69 -141 248v107q0 77 22 135.5t71 103t134 67.5t205 23q221 0 406 -41l-23 -204q-174 32 -393 32q-93 0 -131.5 -30t-38.5 -97v-122q0 -136 141 -136h688v-211h-198v-528q-204 -67 -476 -67q-233 0 -332.5 87t-99.5 248zM395 342 q0 -83 39.5 -119.5t147.5 -36.5q125 0 231 19v370h-231q-187 0 -187 -147v-86z" />
<glyph unicode="'" horiz-adv-x="423" d="M123 899v506h178v-506h-178z" />
<glyph unicode="(" horiz-adv-x="686" d="M143 623q0 525 318 938l184 -107q-131 -212 -190.5 -401.5t-59.5 -429.5t60 -430t190 -402l-184 -106q-318 413 -318 938z" />
<glyph unicode=")" horiz-adv-x="686" d="M41 -209q130 212 190 402t60 430t-59.5 429.5t-190.5 401.5l184 107q318 -413 318 -938t-318 -938z" />
<glyph unicode="*" horiz-adv-x="1028" d="M123 999v121h278l-151 240l100 65l162 -249l162 249l102 -65l-155 -240h284v-121h-278l149 -231l-104 -66l-160 248l-160 -248l-104 66l149 231h-274z" />
<glyph unicode="+" horiz-adv-x="1081" d="M123 399v197h315v317h205v-317h315v-197h-315v-317h-205v317h-315z" />
<glyph unicode="," horiz-adv-x="561" d="M133 -221l115 221h-94v287h254v-303l-160 -269z" />
<glyph unicode="-" horiz-adv-x="761" d="M123 469v209h516v-209h-516z" />
<glyph unicode="." horiz-adv-x="561" d="M154 0v287h254v-287h-254z" />
<glyph unicode="/" horiz-adv-x="940" d="M113 -240l508 1624h227l-510 -1624h-225z" />
<glyph unicode="0" horiz-adv-x="1150" d="M133 346v631q0 80 22.5 144t72.5 115t138 79t209 28t209.5 -28t138 -79t72.5 -115t23 -144v-631q0 -80 -23 -144t-72.5 -115t-138 -79t-209.5 -28t-209 28t-138 79t-72.5 115t-22.5 144zM383 371q0 -94 39 -133t153 -39t153.5 39t39.5 133v581q0 94 -39.5 133t-153.5 39 t-153 -39t-39 -133v-581z" />
<glyph unicode="1" horiz-adv-x="786" d="M20 1106l377 217h226v-1323h-250v1047l-248 -138z" />
<glyph unicode="2" horiz-adv-x="1026" d="M102 1290q181 53 371 53q230 0 328 -78t98 -243v-47q0 -77 -5 -119.5t-28.5 -96.5t-60.5 -105t-113 -144q-152 -186 -243 -291h454v-219h-794v215q200 218 317 354q62 71 85 98t57.5 71t43 61t21 47.5t14.5 53.5t2 58v35q0 75 -39 102t-151 27q-140 0 -322 -41z" />
<glyph unicode="3" horiz-adv-x="1007" d="M102 23l27 206q150 -30 293 -30q131 0 172 30t41 113v80q0 73 -34.5 102t-113.5 29h-292v223h247q98 0 133 33.5t35 110.5v79q0 73 -40 99t-148 26q-132 0 -283 -28l-26 211q141 36 331 36q119 0 200.5 -19t128.5 -59t67 -93.5t20 -129.5v-127q0 -99 -33.5 -155.5 t-113.5 -91.5q89 -30 130.5 -88t41.5 -160v-117q0 -80 -21.5 -137.5t-72.5 -100.5t-140.5 -64t-220.5 -21q-75 0 -173 12t-155 31z" />
<glyph unicode="4" horiz-adv-x="1157" d="M57 291v231l531 801h334v-819h174v-213h-174v-291h-246v291h-619zM307 504h369v571z" />
<glyph unicode="5" horiz-adv-x="1028" d="M123 29l31 204q148 -34 313 -34q69 0 109.5 7.5t60 29t24.5 45.5t5 71v66q0 75 -36 107t-141 36q-180 7 -325 10v752h729v-217h-479v-330q59 -2 184 -8q171 -9 244 -89t73 -224v-125q0 -69 -11 -119.5t-40 -96t-78 -74t-128 -44.5t-187 -16q-186 0 -348 49z" />
<glyph unicode="6" horiz-adv-x="1077" d="M123 371v497q0 134 35 226t108.5 146.5t175.5 78.5t246 24q131 0 236 -24l-17 -209q-89 18 -192 18q-97 0 -156.5 -9.5t-104 -36.5t-63 -76t-18.5 -127v-127q104 36 243 36q185 0 267 -79.5t82 -257.5v-99q0 -84 -21 -148.5t-68 -116.5t-130.5 -79.5t-200.5 -27.5 q-104 0 -179 18.5t-121.5 50.5t-74 83t-37.5 107t-10 132zM373 344q0 -84 37.5 -116.5t134.5 -32.5q95 0 132.5 34.5t37.5 114.5v100q0 71 -33.5 100t-103.5 29q-107 0 -205 -43v-186z" />
<glyph unicode="7" horiz-adv-x="942" d="M51 1104v219h830v-211l-473 -1112h-261l471 1104h-567z" />
<glyph unicode="8" horiz-adv-x="1118" d="M123 319v87q0 89 42 151t152 117q-90 53 -125.5 113.5t-35.5 140.5v92q0 157 95 240t308 83t308.5 -83t95.5 -240v-92q0 -81 -35 -141t-127 -113q111 -55 152.5 -116.5t41.5 -151.5v-87q0 -183 -99 -261t-337 -78t-337 78t-99 261zM365 324q0 -76 42.5 -107t151.5 -31 t152 31t43 107v55q0 47 -12.5 74t-54 54.5t-128.5 61.5q-66 -26 -104 -46t-58 -43t-26 -44.5t-6 -56.5v-55zM397 928q0 -59 29.5 -89.5t132.5 -70.5q103 40 132.5 70.5t29.5 89.5v86q0 65 -34.5 95t-127.5 30t-127.5 -30t-34.5 -95v-86z" />
<glyph unicode="9" horiz-adv-x="1067" d="M102 872v99q0 181 98 276.5t322 95.5q104 0 179 -18.5t121.5 -50.5t74 -83t37.5 -107t10 -132v-497q0 -134 -35 -226t-108.5 -146.5t-175.5 -78.5t-246 -24q-131 0 -236 24l23 209q88 -18 186 -18q197 0 269.5 53.5t72.5 195.5v127q-104 -36 -243 -36q-185 0 -267 79.5 t-82 257.5zM352 879q0 -71 33.5 -100t103.5 -29q107 0 205 43v186q0 85 -37.5 117t-134.5 32q-95 0 -132.5 -34.5t-37.5 -114.5v-100z" />
<glyph unicode=":" horiz-adv-x="561" d="M154 0v287h254v-287h-254zM154 623v286h254v-286h-254z" />
<glyph unicode=";" horiz-adv-x="561" d="M133 -221l115 221h-94v287h254v-303l-160 -269zM154 623v286h254v-286h-254z" />
<glyph unicode="&#x3c;" horiz-adv-x="1200" d="M102 432v135l885 451l78 -152l-727 -366l729 -367l-80 -153z" />
<glyph unicode="=" horiz-adv-x="1103" d="M143 233v173h818v-173h-818zM143 618v173h818v-173h-818z" />
<glyph unicode="&#x3e;" horiz-adv-x="1200" d="M133 133l729 367l-727 366l78 152l885 -451v-135l-885 -452z" />
<glyph unicode="?" d="M102 1380q170 45 357 45q132 0 217 -22.5t133 -72.5t66 -117t18 -169q0 -68 -2 -105t-10.5 -80.5t-27 -73.5t-48.5 -64.5t-78 -73.5q-81 -67 -258 -201l-141 191q36 28 188 149q62 49 87.5 81t32.5 63.5t7 99.5q0 100 -41.5 136t-169.5 36q-148 0 -293 -37zM301 0v287 h254v-287h-254z" />
<glyph unicode="@" horiz-adv-x="1511" d="M102 682q0 199 86.5 359t244.5 251.5t358 91.5q147 0 267.5 -44.5t198.5 -121.5t120 -178.5t42 -216.5q0 -71 -10 -131.5t-35.5 -118.5t-66.5 -99t-106.5 -66t-151.5 -25q-70 0 -127 25.5t-78 70.5q-84 -51 -201 -51q-89 0 -122 55t-19 133q9 52 19.5 110t17.5 99 q20 109 77.5 151t167.5 42q60 0 138 -20.5t127 -49.5l-76 -424q38 -10 71 -10q63 0 106 25t65 70t31 95.5t9 114.5q0 87 -29.5 161.5t-85.5 131t-145.5 89t-203.5 32.5q-226 0 -372.5 -154.5t-146.5 -396.5q0 -257 147 -403t421 -146q162 0 317 60l47 -138 q-153 -75 -362 -75q-180 0 -321.5 51.5t-232.5 145t-138.5 221.5t-47.5 284zM645 614q-6 -34 5.5 -48.5t41.5 -14.5t73.5 14t76.5 37l47 270q-58 23 -111 23q-46 0 -68 -19t-30 -61q-4 -23 -35 -201z" />
<glyph unicode="A" horiz-adv-x="1323" d="M51 0l430 1364h361l430 -1364h-271l-88 283h-505l-86 -283h-271zM471 506h377l-186 645z" />
<glyph unicode="B" horiz-adv-x="1181" d="M154 0v1364h536q363 0 363 -291v-141q0 -83 -36.5 -135t-115.5 -86q94 -20 146.5 -86.5t52.5 -165.5v-146q0 -148 -95 -230.5t-278 -82.5h-573zM412 213h264q89 0 127.5 29.5t38.5 103.5v103q0 70 -34 103.5t-110 33.5h-286v-373zM412 793h245q138 0 138 127v120 q0 57 -33 84t-103 27h-247v-358z" />
<glyph unicode="C" horiz-adv-x="1071" d="M123 375v614q0 395 485 395q196 0 371 -45l-29 -223q-194 35 -334 35q-131 0 -183 -48t-52 -159v-524q0 -111 52 -159t183 -48q140 0 334 35l29 -223q-175 -45 -371 -45q-485 0 -485 395z" />
<glyph unicode="D" horiz-adv-x="1236" d="M154 0v1364h508q122 0 212 -29t141 -81t75 -116t24 -141v-630q0 -76 -24 -140t-75 -116t-141 -81.5t-212 -29.5h-508zM412 227h223q125 0 173 48.5t48 152.5v508q0 104 -48 152.5t-173 48.5h-223v-910z" />
<glyph unicode="E" horiz-adv-x="1101" d="M154 0v1364h835v-227h-577v-330h532v-227h-532v-353h577v-227h-835z" />
<glyph unicode="F" horiz-adv-x="1069" d="M154 0v1364h843v-227h-585v-363h540v-227h-540v-547h-258z" />
<glyph unicode="G" horiz-adv-x="1196" d="M123 391v582q0 211 126 311t392 100q223 0 391 -45l-28 -225q-171 37 -383 37q-131 0 -185.5 -52.5t-54.5 -160.5v-516q0 -105 54 -158t183 -53q99 0 211 16v414h244v-600q-213 -61 -457 -61q-493 0 -493 411z" />
<glyph unicode="H" horiz-adv-x="1329" d="M154 0v1364h258v-561h506v561h258v-1364h-258v575h-506v-575h-258z" />
<glyph unicode="I" horiz-adv-x="585" d="M164 0v1364h258v-1364h-258z" />
<glyph unicode="J" horiz-adv-x="555" d="M-20 -248q119 114 140 141q31 39 34 88v19v1364h258v-1387q0 -103 -54 -178.5t-225 -220.5z" />
<glyph unicode="K" horiz-adv-x="1253" d="M154 0v1364h258v-1364h-258zM449 690l421 674h293l-430 -674l459 -690h-297z" />
<glyph unicode="L" horiz-adv-x="1034" d="M154 0v1364h258v-1137h561v-227h-819z" />
<glyph unicode="M" horiz-adv-x="1671" d="M133 0l62 1364h288l353 -969l352 969h289l61 -1364h-264l-23 883l-252 -707h-327l-252 707l-23 -883h-264z" />
<glyph unicode="N" horiz-adv-x="1421" d="M154 0v1364h344l518 -1036v1036h252v-1364h-344l-518 1034v-1034h-252z" />
<glyph unicode="O" horiz-adv-x="1277" d="M123 399v566q0 89 27.5 162t85.5 132t160.5 92t242.5 33t242.5 -33t160.5 -92t85.5 -132t27.5 -162v-566q0 -89 -27.5 -162t-85.5 -132t-160.5 -92t-242.5 -33t-242.5 33t-160.5 92t-85.5 132t-27.5 162zM381 414q0 -102 59.5 -154.5t198.5 -52.5t198.5 52.5t59.5 154.5 v536q0 102 -59.5 154.5t-198.5 52.5t-198.5 -52.5t-59.5 -154.5v-536z" />
<glyph unicode="P" horiz-adv-x="1179" d="M154 0v1364h532q230 0 331 -91.5t101 -277.5v-186q0 -183 -106 -275t-338 -92h-262v-442h-258zM412 670h260q106 0 147 39t41 127v139q0 86 -42 124t-146 38h-260v-467z" />
<glyph unicode="Q" horiz-adv-x="1277" d="M123 399v566q0 89 27.5 162t85.5 132t160.5 92t242.5 33t242.5 -33t160.5 -92t85.5 -132t27.5 -162v-566q0 -150 -79 -256.5t-251 -144.5l109 -256l-232 -96l-143 338q-118 8 -204.5 44t-136 93.5t-72.5 126.5t-23 151zM381 414q0 -102 59.5 -154.5t198.5 -52.5 t198.5 52.5t59.5 154.5v536q0 102 -59.5 154.5t-198.5 52.5t-198.5 -52.5t-59.5 -154.5v-536z" />
<glyph unicode="R" horiz-adv-x="1331" d="M154 0v1364h559q231 0 332.5 -91.5t101.5 -277.5v-178q0 -257 -205 -330l338 -487h-309l-314 451h-245v-451h-258zM412 674h290q104 0 145.5 39t41.5 127v135q0 87 -42.5 124.5t-144.5 37.5h-290v-463z" />
<glyph unicode="S" horiz-adv-x="1105" d="M98 61l45 203q205 -63 385 -63q94 0 140 16t61.5 50t15.5 104q0 46 -0.5 66t-10 45.5t-21.5 35t-44 24t-68.5 23t-104.5 23.5q-86 19 -142.5 36.5t-101 43t-68 52.5t-39 72t-20 95t-4.5 127q0 128 42 207t144 121t273 42q201 0 397 -45l-29 -217q-185 41 -364 41 q-88 0 -131.5 -15t-58.5 -46t-15 -94v-52t4.5 -39.5t8 -31t19 -23t27.5 -19.5t43.5 -16t58 -17t78.5 -19q71 -17 122 -31.5t93 -33.5t68.5 -34.5t47 -42t30.5 -49t16 -62t7.5 -74.5t1.5 -93q0 -68 -7.5 -119t-27 -97t-54.5 -76.5t-87.5 -54t-128 -34t-175.5 -10.5 q-114 0 -235 24t-191 57z" />
<glyph unicode="T" horiz-adv-x="1122" d="M51 1137v227h1020v-227h-381v-1137h-258v1137h-381z" />
<glyph unicode="U" horiz-adv-x="1294" d="M143 395v969h258v-948q0 -104 57 -156.5t189 -52.5t189 52.5t57 156.5v948h258v-969q0 -67 -15.5 -126t-52 -113t-93 -92t-144.5 -61t-199 -23t-199 23t-144.5 61t-93 92t-52 113t-15.5 126z" />
<glyph unicode="V" horiz-adv-x="1228" d="M16 1364h269l329 -1137l330 1137h268l-407 -1364h-381z" />
<glyph unicode="W" horiz-adv-x="1933" d="M31 1364h256l260 -1057l248 1057h344l247 -1057l261 1057h256l-338 -1364h-348l-250 1098l-250 -1098h-348z" />
<glyph unicode="X" horiz-adv-x="1253" d="M51 0l428 686l-411 678h276l283 -475l282 475h277l-412 -678l428 -686h-278l-297 483l-297 -483h-279z" />
<glyph unicode="Y" horiz-adv-x="1159" d="M10 1364h275l295 -688l294 688h275l-440 -969v-395h-258v395z" />
<glyph unicode="Z" horiz-adv-x="1177" d="M133 0v217l631 928h-606v219h891v-219l-627 -926h633v-219h-922z" />
<glyph unicode="[" horiz-adv-x="671" d="M174 -258v1876h436v-205h-186v-1466h186v-205h-436z" />
<glyph unicode="\" horiz-adv-x="940" d="M92 1384h227l508 -1624h-225z" />
<glyph unicode="]" horiz-adv-x="671" d="M61 -53h187v1466h-187v205h437v-1876h-437v205z" />
<glyph unicode="^" horiz-adv-x="972" d="M92 852l305 553h174l310 -553l-156 -92l-240 436l-241 -436z" />
<glyph unicode="_" horiz-adv-x="899" d="M-2 -20h903v-132h-903v132z" />
<glyph unicode="`" horiz-adv-x="643" d="M123 1292l98 152q132 -98 299 -201l-92 -139q-130 72 -305 188z" />
<glyph unicode="a" d="M102 276q0 151 68.5 216t222.5 65h240v105q0 86 -37.5 117.5t-153.5 31.5q-124 0 -276 -31l-31 191q152 47 342 47q117 0 195.5 -20.5t125 -66.5t66 -111.5t19.5 -162.5v-657h-205l-19 68q-134 -88 -297 -88q-131 0 -195.5 80t-64.5 216zM344 279q0 -54 21.5 -77.5 t78.5 -23.5q100 0 189 51v148h-184q-61 0 -83 -20.5t-22 -77.5z" />
<glyph unicode="b" horiz-adv-x="1081" d="M143 14v1391l250 35v-482q143 60 295 60q301 0 301 -342v-293q0 -78 -10.5 -135.5t-40.5 -110.5t-80 -85.5t-132.5 -52t-195.5 -19.5q-217 0 -387 34zM393 201q60 -8 150 -8q116 0 156 43.5t40 138.5v307q0 62 -30 92.5t-97 30.5q-99 0 -219 -57v-547z" />
<glyph unicode="c" horiz-adv-x="858" d="M98 362v273q0 203 99 293t331 90q134 0 244 -37l-31 -205q-102 27 -206 27q-106 0 -146.5 -36.5t-40.5 -129.5v-277q0 -93 40 -129t147 -36q102 0 206 26l31 -205q-103 -36 -244 -36q-233 0 -331.5 89.5t-98.5 292.5z" />
<glyph unicode="d" horiz-adv-x="1091" d="M102 326v340q0 352 330 352q125 0 266 -29v416l250 35v-1440h-198l-25 84q-145 -104 -315 -104q-151 0 -229.5 88t-78.5 258zM352 319q0 -64 28 -95t95 -31q59 0 120 25.5t103 64.5v495q-127 27 -221 27q-66 0 -95.5 -32t-29.5 -101v-353z" />
<glyph unicode="e" horiz-adv-x="985" d="M98 365v264q0 84 20.5 150.5t66 122t128.5 86t199 30.5q93 0 163 -21.5t113 -57.5t69 -89t36 -109t10 -125v-213h-555v-51q0 -93 41.5 -130.5t153.5 -37.5q150 0 305 47l39 -188q-166 -63 -367 -63q-226 0 -324 98t-98 287zM348 604h318v49q0 78 -33 119t-119 41 q-166 0 -166 -160v-49z" />
<glyph unicode="f" horiz-adv-x="743" d="M51 799v198h160v140q0 157 76.5 233t240.5 76q109 0 215 -29l-26 -192q-75 16 -144 16t-90.5 -28t-21.5 -91v-125h254l-15 -198h-239v-799h-250v799h-160z" />
<glyph unicode="g" horiz-adv-x="1001" d="M82 592v94q3 162 97.5 247t303.5 85q84 0 170 -21h308v-125q-18 -5 -55.5 -15t-55.5 -15q35 -65 35 -156v-94q0 -157 -99 -241.5t-303 -84.5q-39 0 -57 2q-59 -36 -59 -80q0 -20 13 -30t42 -13q65 -7 289 -30q117 -13 165 -71.5t48 -170.5q0 -84 -18 -137t-67.5 -91 t-137.5 -53.5t-228 -15.5q-220 0 -385 51l31 187q169 -43 336 -43q149 0 193 14.5t44 64.5q0 45 -18 59.5t-76 20.5q-62 7 -148 17t-141 16q-107 12 -151.5 54.5t-44.5 136.5q0 96 104 170q-135 81 -135 268zM317 602q0 -73 39 -104t127 -31q89 0 128.5 31.5t39.5 103.5v76 q0 72 -38 105.5t-130 33.5q-90 0 -128 -33.5t-38 -105.5v-76z" />
<glyph unicode="h" horiz-adv-x="1116" d="M143 0v1405l250 35v-518q83 43 184.5 69.5t180.5 26.5q225 0 225 -295v-723h-250v696q0 80 -80 80q-45 0 -118 -24t-142 -60v-692h-250z" />
<glyph unicode="i" horiz-adv-x="536" d="M143 0v997h250v-997h-250zM143 1139v288h250v-288h-250z" />
<glyph unicode="j" horiz-adv-x="522" d="M-16 -264q47 44 62.5 58t40.5 40.5t29.5 35.5t13 30t9 36.5t0.5 43.5v1017h250v-1050q0 -94 -48.5 -163t-211.5 -208zM139 1139v288h250v-288h-250z" />
<glyph unicode="k" horiz-adv-x="1040" d="M143 0v1405l250 35v-1440h-250zM428 504l285 493h278l-293 -493l306 -504h-275z" />
<glyph unicode="l" horiz-adv-x="536" d="M143 0v1405l250 35v-1440h-250z" />
<glyph unicode="m" horiz-adv-x="1705" d="M143 0v997h191l24 -84q96 47 205 76t195 29q136 0 188 -107q93 47 203 77t199 30q225 0 225 -295v-723h-250v696q0 80 -80 80q-46 0 -124 -25t-136 -59v-692h-250v696q0 80 -80 80q-45 0 -118 -24t-142 -60v-692h-250z" />
<glyph unicode="n" horiz-adv-x="1116" d="M143 0v997h191l24 -84q96 47 205 76t195 29q225 0 225 -295v-723h-250v696q0 80 -80 80q-45 0 -118 -24t-142 -60v-692h-250z" />
<glyph unicode="o" horiz-adv-x="1064" d="M98 373v252q0 65 12 120t42.5 106.5t78.5 87.5t125 57.5t176 21.5q123 0 211 -31.5t135.5 -89t68 -124t20.5 -148.5v-252q0 -82 -20.5 -148.5t-68 -124t-135.5 -89t-211 -31.5q-99 0 -176 21.5t-125 57.5t-78.5 87.5t-42.5 106.5t-12 120zM348 365q0 -87 43.5 -129.5 t140.5 -42.5q98 0 141.5 42.5t43.5 129.5v268q0 87 -43.5 129.5t-141.5 42.5q-97 0 -140.5 -42.5t-43.5 -129.5v-268z" />
<glyph unicode="p" horiz-adv-x="1091" d="M143 -438v1435h199l25 -84q147 105 315 105q151 0 229 -88t78 -258v-340q0 -352 -330 -352q-129 0 -266 28v-411zM393 219q123 -26 221 -26q66 0 95.5 32t29.5 101v352q0 64 -28 95.5t-95 31.5q-59 0 -120 -25.5t-103 -64.5v-496z" />
<glyph unicode="q" horiz-adv-x="1081" d="M102 322v292q0 78 10.5 135.5t40.5 110.5t80 86t132.5 52.5t195.5 19.5q212 0 387 -35v-1386l-250 -35v477q-141 -59 -295 -59q-301 0 -301 342zM352 315q0 -62 30 -92t97 -30q99 0 219 57v547q-60 8 -149 8q-116 0 -156.5 -43.5t-40.5 -138.5v-308z" />
<glyph unicode="r" horiz-adv-x="681" d="M143 0v997h211l17 -110q52 35 127.5 74.5t134.5 56.5l24 -230q-120 -54 -264 -145v-643h-250z" />
<glyph unicode="s" horiz-adv-x="915" d="M109 37l34 190q144 -43 297 -43q80 0 103.5 20.5t23.5 80.5q0 35 -9 53.5t-47.5 38.5t-117.5 39q-75 18 -122.5 37.5t-78.5 42t-46 58t-20 74t-5 101.5q0 155 82 222t291 67q168 0 299 -35l-25 -199q-157 29 -274 29q-78 0 -102.5 -18.5t-24.5 -67.5q0 -34 2 -48.5 t18.5 -28.5t40.5 -21.5t80 -22.5q74 -20 120 -34.5t83 -35t55 -38.5t29.5 -51t14.5 -66.5t3 -89.5q0 -62 -8.5 -107t-31.5 -85.5t-63 -65t-104 -39t-153 -14.5q-80 0 -177.5 16t-166.5 41z" />
<glyph unicode="t" horiz-adv-x="727" d="M31 799v198h149v248l250 35v-283h256l-16 -198h-240v-523q0 -88 90 -88q50 0 125 21l29 -191q-38 -16 -103.5 -27t-115.5 -11q-275 0 -275 264v555h-149z" />
<glyph unicode="u" horiz-adv-x="1116" d="M133 274v723h250v-696q0 -80 80 -80q45 0 118 24t142 60v692h250v-997h-191l-24 84q-95 -46 -204.5 -75t-195.5 -29q-225 0 -225 294z" />
<glyph unicode="v" horiz-adv-x="989" d="M10 997h256l228 -757l229 757h256l-320 -997h-329z" />
<glyph unicode="w" horiz-adv-x="1441" d="M37 997h233l123 -667l199 667h260l197 -667l122 667h234l-184 -997h-289l-211 717l-211 -717h-289z" />
<glyph unicode="x" horiz-adv-x="958" d="M25 0l321 502l-315 495h250l198 -303l197 303h250l-316 -495l324 -502h-256l-199 309l-200 -309h-254z" />
<glyph unicode="y" horiz-adv-x="978" d="M10 997h256l228 -757l229 757h256l-320 -997l-133 -403h-237l125 403h-88z" />
<glyph unicode="z" horiz-adv-x="942" d="M113 0v193l444 612h-438v192h727v-192l-445 -612h459v-193h-747z" />
<glyph unicode="{" horiz-adv-x="696" d="M92 567v193h41q47 0 66.5 20.5t19.5 61.5v475q0 151 63 226t203 75h170v-201h-104q-42 0 -62 -19.5t-20 -64.5v-434q0 -107 -36 -168t-132 -67q96 -6 132 -67.5t36 -168.5v-434q0 -45 20 -64.5t62 -19.5h104v-201h-170q-140 0 -203 75t-63 226v475q0 41 -19.5 61.5 t-66.5 20.5h-41z" />
<glyph unicode="|" horiz-adv-x="522" d="M184 -430v2048h154v-2048h-154z" />
<glyph unicode="}" horiz-adv-x="696" d="M41 -90h104q42 0 62 19.5t20 64.5v434q0 107 36 168.5t132 67.5q-96 6 -132 67t-36 168v434q0 45 -20 64.5t-62 19.5h-104v201h170q140 0 203 -75t63 -226v-475q0 -41 19.5 -61.5t66.5 -20.5h41v-193h-41q-47 0 -66.5 -20.5t-19.5 -61.5v-475q0 -151 -63 -226t-203 -75 h-170v201z" />
<glyph unicode="~" horiz-adv-x="987" d="M72 471q18 46 29.5 73t29 60t35 51.5t42 36t55 24.5t69.5 7q48 0 107.5 -34.5t115 -68.5t94.5 -34q28 0 51 12t38.5 35t25 42.5t20.5 49.5l142 -78q-19 -55 -40.5 -96.5t-54 -78.5t-78.5 -57t-104 -20q-42 0 -89 21t-81 46.5t-71 46.5t-62 21q-19 0 -34.5 -6t-25.5 -11.5 t-22 -23t-16 -25t-17.5 -35t-17.5 -36.5z" />
<glyph unicode="&#xa1;" horiz-adv-x="581" d="M164 711v286h254v-286h-254zM166 205l51 354h148l51 -354v-608h-250v608z" />
<glyph unicode="&#xa2;" horiz-adv-x="899" d="M113 547v272q0 173 70.5 263.5t232.5 111.5v190h172v-184q105 -7 198 -35l-30 -204q-98 26 -207 26q-106 0 -146.5 -36.5t-40.5 -129.5v-276q0 -93 40.5 -129.5t146.5 -36.5q99 0 207 27l30 -205q-95 -31 -198 -37v-184h-172v190q-162 23 -232.5 113t-70.5 264z" />
<glyph unicode="&#xa3;" horiz-adv-x="1110" d="M123 567v199h166q-58 150 -58 246q0 91 30.5 156.5t88.5 103t133.5 54.5t173.5 17q173 0 340 -47l-30 -206q-150 34 -318 34q-88 0 -128 -28t-40 -101q0 -36 10.5 -79.5t20.5 -70.5t31 -79h385l-15 -199h-335q2 -16 2 -39q0 -86 -30 -159.5t-97 -149.5h524v-219h-834v219 q84 55 135.5 138.5t51.5 172.5v37h-207z" />
<glyph unicode="&#xa4;" horiz-adv-x="1153" d="M113 291l137 137q-25 55 -25 119v278q0 64 25 119l-137 137l149 150l152 -154q74 23 164 23q85 0 159 -23l154 154l149 -150l-137 -137q27 -52 27 -119v-278q0 -67 -27 -119l137 -137l-149 -150l-154 154q-74 -23 -159 -23q-90 0 -164 23l-152 -154zM440 578 q0 -65 32.5 -89t105.5 -24q71 0 104 24t33 89v217q0 64 -32.5 88t-104.5 24q-73 0 -105.5 -23.5t-32.5 -88.5v-217z" />
<glyph unicode="&#xa5;" horiz-adv-x="1142" d="M20 1323h275l276 -647l277 647h274l-262 -578h170v-165h-246l-84 -185h330v-159h-330v-236h-258v236h-329v159h329l-84 185h-245v165h170z" />
<glyph unicode="&#xa6;" horiz-adv-x="522" d="M184 424h154v-854h-154v854zM184 764v854h154v-854h-154z" />
<glyph unicode="&#xa7;" horiz-adv-x="1122" d="M113 1130q0 254 297 254q167 0 350 -57l-33 -168q-198 45 -293 45q-58 0 -82 -20.5t-24 -73.5q0 -356 213 -1051l-195 -59q-233 705 -233 1130zM373 -326l33 168q198 -45 292 -45q58 0 82.5 20.5t24.5 73.5q0 356 -213 1051l194 59q234 -708 234 -1130q0 -254 -297 -254 q-167 0 -350 57z" />
<glyph unicode="&#xa8;" horiz-adv-x="839" d="M123 1135v215h207v-215h-207zM510 1135v215h207v-215h-207z" />
<glyph unicode="&#xa9;" horiz-adv-x="1630" d="M113 682q0 194 86 353.5t247.5 254t368.5 94.5q156 0 288.5 -55t222.5 -150t141 -223.5t51 -273.5q0 -144 -51 -272.5t-141 -223.5t-223 -150.5t-288 -55.5q-207 0 -368.5 95t-247.5 254t-86 353zM287 682q0 -150 64 -272t185.5 -194.5t278.5 -72.5q158 0 279.5 72.5 t185 194.5t63.5 272q0 151 -63.5 273t-185 194t-279.5 72q-157 0 -278.5 -72t-185.5 -194t-64 -273zM555 563v238q0 123 65.5 180t217.5 57q118 0 206 -32l-22 -150q-90 23 -166 23q-72 0 -94.5 -20t-22.5 -75v-204q0 -55 22.5 -75t94.5 -20q76 0 166 23l22 -150 q-88 -32 -206 -32q-152 0 -217.5 57t-65.5 180z" />
<glyph unicode="&#xaa;" horiz-adv-x="788" d="M154 958q0 95 43.5 136t140.5 41h149v65q0 55 -22.5 74.5t-95.5 19.5q-75 0 -174 -18l-21 119q98 30 217 30q144 0 199 -52.5t55 -174.5v-416h-129l-10 43q-85 -55 -189 -55q-83 0 -123 51t-40 137zM305 958q0 -33 14 -48t50 -15q58 0 118 33v92h-114q-40 0 -54 -12.5 t-14 -49.5z" />
<glyph unicode="&#xab;" horiz-adv-x="1032" d="M72 500l260 395l166 -104l-191 -291l191 -291l-166 -105zM494 500l260 395l166 -104l-191 -291l191 -291l-166 -105z" />
<glyph unicode="&#xac;" horiz-adv-x="1112" d="M123 506v196h835v-522h-204v326h-631z" />
<glyph unicode="&#xad;" horiz-adv-x="761" d="M123 469v209h516v-209h-516z" />
<glyph unicode="&#xae;" horiz-adv-x="964" d="M113 1055q0 159 100.5 264.5t267.5 105.5t269 -105.5t102 -264.5q0 -158 -102.5 -265.5t-268.5 -107.5t-267 107.5t-101 265.5zM221 1055q0 -116 67 -194.5t193 -78.5t194 78.5t68 194.5t-68 193t-194 77t-193 -77t-67 -193zM360 893v340h140q110 0 110 -96v-37 q0 -61 -47 -82l88 -125h-86l-80 111h-51v-111h-74zM434 1071h62q24 0 32.5 8.5t8.5 26.5v24q0 20 -9 27.5t-32 7.5h-62v-94z" />
<glyph unicode="&#xaf;" horiz-adv-x="737" d="M113 1141v166h512v-166h-512z" />
<glyph unicode="&#xb0;" horiz-adv-x="731" d="M102 1083q0 110 72.5 185t192.5 75t191 -74.5t71 -185.5t-71 -184.5t-191 -73.5q-121 0 -193 73.5t-72 184.5zM240 1083q0 -59 33.5 -98t93.5 -39q59 0 92 39.5t33 97.5q0 62 -32 101t-93 39q-62 0 -94.5 -39t-32.5 -101z" />
<glyph unicode="&#xb1;" horiz-adv-x="1142" d="M154 0v188h835v-188h-835zM154 625v196h315v318h205v-318h315v-196h-315v-318h-205v318h-315z" />
<glyph unicode="&#xb2;" horiz-adv-x="819" d="M133 1303q115 40 266 40q143 0 203 -54.5t60 -168.5v-35q0 -49 -4 -75.5t-26 -70.5t-69 -99q-32 -36 -64 -73.5t-52.5 -60.5t-43.5 -49h273v-159h-529v141q53 56 195 211q66 72 94.5 110.5t33.5 54.5t5 44v37q0 45 -19 61.5t-75 16.5q-93 0 -215 -31z" />
<glyph unicode="&#xb3;" horiz-adv-x="811" d="M154 510l14 141q109 -16 229 -16q54 0 72 18t18 56v63q0 39 -19.5 55.5t-61.5 16.5h-203v141h192q44 0 61 17.5t17 50.5v63q0 44 -21.5 60t-86.5 16q-85 0 -185 -14l-16 141q106 24 209 24q152 0 216 -51t64 -155v-62q0 -60 -17.5 -93t-74.5 -62q62 -21 84.5 -57.5 t22.5 -106.5v-54q0 -111 -60.5 -166t-220.5 -55q-137 0 -233 29z" />
<glyph unicode="&#xb4;" horiz-adv-x="643" d="M123 1243q151 93 299 201l98 -152q-183 -121 -307 -188z" />
<glyph unicode="&#xb5;" horiz-adv-x="1116" d="M133 -403v1400h250v-696q0 -80 80 -80q45 0 118 24t142 60v692h250v-997h-191l-24 84q-194 -94 -375 -104v-383h-250z" />
<glyph unicode="&#xb6;" horiz-adv-x="1077" d="M92 915q0 192 129.5 320.5t321.5 128.5v-895q-193 0 -322 127t-129 319zM473 -287q76 71 111.5 106t66 66t39 48.5t12 31t3.5 37.5v1362h198v-1387q0 -32 -2 -51.5t-16 -47t-26 -45t-53 -59t-75.5 -73t-112.5 -103.5q-16 -14 -24 -22z" />
<glyph unicode="&#xb7;" horiz-adv-x="561" d="M154 524v287h254v-287h-254z" />
<glyph unicode="&#xb8;" horiz-adv-x="614" d="M113 -379l20 96q63 -18 133 -18q59 0 80 14t21 45q0 26 -17.5 37.5t-60.5 11.5q-28 0 -64 -4l-59 29l43 199h117l-27 -140q40 5 57 5q71 1 108.5 -37.5t37.5 -102.5q0 -77 -54.5 -121.5t-164.5 -44.5q-89 0 -170 31z" />
<glyph unicode="&#xb9;" horiz-adv-x="710" d="M92 1171l277 152h147v-829h-186v616l-170 -84z" />
<glyph unicode="&#xba;" horiz-adv-x="792" d="M123 1018v160q0 247 272 247q275 0 275 -247v-160q0 -248 -275 -248q-272 0 -272 248zM281 1014q0 -56 26.5 -82.5t87.5 -26.5q62 0 89.5 27t27.5 82v168q0 55 -27.5 81.5t-89.5 26.5q-61 0 -87.5 -26t-26.5 -82v-168z" />
<glyph unicode="&#xbb;" horiz-adv-x="1032" d="M113 209l190 291l-190 291l166 104l260 -395l-260 -396zM535 209l190 291l-190 291l165 104l261 -395l-261 -396z" />
<glyph unicode="&#xbc;" horiz-adv-x="1757" d="M102 1171l277 152h147v-829h-186v616l-170 -84zM455 -20l612 1425l141 -62l-610 -1425zM961 166v135l299 528h253v-518h121v-145h-121v-166h-178v166h-374zM1145 311h190v361z" />
<glyph unicode="&#xbd;" horiz-adv-x="1810" d="M102 1171l277 152h147v-829h-186v616l-170 -84zM455 -20l612 1425l141 -62l-610 -1425zM1104 805q118 41 266 41q143 0 202.5 -54.5t59.5 -168.5v-35q0 -50 -3.5 -76t-25.5 -70.5t-69 -99.5q-131 -150 -160 -182h273v-160h-529v141q53 56 195 211q66 72 94.5 110.5 t33.5 54.5t5 44v37q0 45 -19 61.5t-75 16.5q-93 0 -215 -31z" />
<glyph unicode="&#xbe;" horiz-adv-x="1824" d="M154 510l14 141q109 -16 229 -16q54 0 72 18t18 56v63q0 39 -19.5 55.5t-61.5 16.5h-203v141h192q44 0 61 17.5t17 50.5v63q0 44 -21.5 60t-86.5 16q-85 0 -185 -14l-16 141q106 24 209 24q152 0 216 -51t64 -155v-62q0 -60 -17.5 -93t-74.5 -62q62 -21 84.5 -57.5 t22.5 -106.5v-54q0 -111 -60.5 -166t-220.5 -55q-137 0 -233 29zM522 -20l613 1425l141 -62l-610 -1425zM1028 166v135l299 528h254v-518h121v-145h-121v-166h-178v166h-375zM1212 311h191v361z" />
<glyph unicode="&#xbf;" d="M113 -43q0 68 2 105t10.5 80.5t27 73.5t48.5 64.5t78 73.5q81 67 258 201l141 -190q-28 -22 -189 -150q-62 -49 -87.5 -81t-32.5 -63.5t-7 -99.5q0 -100 41.5 -136t169.5 -36q148 0 293 37l37 -215q-170 -45 -356 -45q-132 0 -217 22.5t-133 72.5t-66 117t-18 169z M451 711v286h254v-286h-254z" />
<glyph unicode="&#xc0;" horiz-adv-x="1323" d="M51 0l430 1364h361l430 -1364h-271l-88 283h-505l-86 -283h-271zM410 1622l98 152q99 -78 270 -183l-90 -139q-164 86 -278 170zM471 506h377l-186 645z" />
<glyph unicode="&#xc1;" horiz-adv-x="1323" d="M51 0l430 1364h361l430 -1364h-271l-88 283h-505l-86 -283h-271zM471 506h377l-186 645zM561 1591q174 107 273 183l96 -152q-118 -88 -279 -170z" />
<glyph unicode="&#xc2;" horiz-adv-x="1323" d="M51 0l430 1364h361l430 -1364h-271l-88 283h-505l-86 -283h-271zM401 1567q145 97 261 186q125 -95 260 -186l-70 -115q-92 42 -190 100q-92 -53 -189 -100zM471 506h377l-186 645z" />
<glyph unicode="&#xc3;" horiz-adv-x="1323" d="M51 0l430 1364h361l430 -1364h-271l-88 283h-505l-86 -283h-271zM340 1556q37 70 90 115t113 45t129 -41q76 -45 106 -45q31 0 50.5 18.5t33.5 57.5l119 -61q-27 -81 -79.5 -126.5t-123.5 -45.5q-72 0 -131 40q-2 1 -13.5 8.5t-13.5 9t-11.5 7t-12.5 6.5t-11 4.5 t-12.5 4.5t-11.5 2t-14 1q-22 0 -43.5 -15.5t-31 -27.5t-30.5 -40zM471 506h377l-186 645z" />
<glyph unicode="&#xc4;" horiz-adv-x="1323" d="M51 0l430 1364h361l430 -1364h-271l-88 283h-505l-86 -283h-271zM360 1487v199h209v-199h-209zM471 506h377l-186 645zM756 1487v199h209v-199h-209z" />
<glyph unicode="&#xc5;" horiz-adv-x="1323" d="M51 0l430 1364h361l430 -1364h-271l-88 283h-505l-86 -283h-271zM471 506h377l-186 645zM494 1602q0 69 46 115t122 46t121.5 -46t45.5 -115q0 -68 -45.5 -114t-121.5 -46q-77 0 -122.5 44.5t-45.5 115.5zM594 1602q0 -31 18 -50.5t50 -19.5t49.5 19.5t17.5 50.5 q0 34 -17.5 52.5t-49.5 18.5t-50 -18.5t-18 -52.5z" />
<glyph unicode="&#xc6;" horiz-adv-x="1765" d="M51 0l430 1364h1172v-227h-740l105 -330h590v-227h-518l110 -353h453v-227h-652l-88 283h-505l-86 -283h-271zM471 506h377l-186 645z" />
<glyph unicode="&#xc7;" horiz-adv-x="1071" d="M123 375v614q0 395 485 395q196 0 371 -45l-29 -223q-194 35 -334 35q-131 0 -183 -48t-52 -159v-524q0 -111 52 -159t183 -48q140 0 334 35l29 -223q-162 -42 -340 -45l-16 -89q40 5 57 5q71 1 108 -37.5t37 -102.5q0 -77 -54.5 -121.5t-164.5 -44.5q-89 0 -170 31 l21 96q63 -18 133 -18q59 0 79.5 14t20.5 45q0 26 -18 37.5t-60 11.5q-27 0 -63 -4l-60 29l33 152q-399 33 -399 391z" />
<glyph unicode="&#xc8;" horiz-adv-x="1101" d="M154 0v1364h835v-227h-577v-330h532v-227h-532v-353h577v-227h-835zM334 1622l98 152q99 -78 270 -183l-90 -139q-164 86 -278 170z" />
<glyph unicode="&#xc9;" horiz-adv-x="1101" d="M154 0v1364h835v-227h-577v-330h532v-227h-532v-353h577v-227h-835zM438 1591q174 107 273 183l96 -152q-118 -88 -279 -170z" />
<glyph unicode="&#xca;" horiz-adv-x="1101" d="M154 0v1364h835v-227h-577v-330h532v-227h-532v-353h577v-227h-835zM324 1567q137 92 260 186q125 -95 260 -186l-70 -115q-92 42 -190 100q-92 -53 -189 -100z" />
<glyph unicode="&#xcb;" horiz-adv-x="1101" d="M154 0v1364h835v-227h-577v-330h532v-227h-532v-353h577v-227h-835zM256 1487v199h209v-199h-209zM651 1487v199h209v-199h-209z" />
<glyph unicode="&#xcc;" horiz-adv-x="585" d="M27 1622l98 152q99 -78 270 -183l-90 -139q-164 86 -278 170zM164 0v1364h258v-1364h-258z" />
<glyph unicode="&#xcd;" horiz-adv-x="585" d="M164 0v1364h258v-1364h-258zM190 1591q174 107 273 183l96 -152q-121 -89 -278 -170z" />
<glyph unicode="&#xce;" horiz-adv-x="585" d="M33 1567q137 92 260 186q125 -95 260 -186l-70 -115q-92 42 -190 100q-92 -53 -189 -100zM164 0v1364h258v-1364h-258z" />
<glyph unicode="&#xcf;" horiz-adv-x="585" d="M-8 1487v199h209v-199h-209zM164 0v1364h258v-1364h-258zM387 1487v199h209v-199h-209z" />
<glyph unicode="&#xd0;" horiz-adv-x="1306" d="M82 586v207h141v571h508q122 0 212 -29t141.5 -81t75.5 -116t24 -141v-630q0 -76 -24.5 -140t-75.5 -116t-141 -81.5t-212 -29.5h-508v586h-141zM481 227h224q125 0 173 48.5t48 152.5v508q0 104 -48 152.5t-173 48.5h-224v-344h209v-207h-209v-359z" />
<glyph unicode="&#xd1;" horiz-adv-x="1421" d="M154 0v1364h344l518 -1036v1036h252v-1364h-344l-518 1034v-1034h-252zM387 1556q37 70 90 115t113 45t129 -41q76 -45 106 -45q31 0 50.5 18.5t33.5 57.5l119 -61q-27 -81 -79.5 -126.5t-123.5 -45.5q-72 0 -131 40q-2 1 -13.5 8.5t-13.5 9t-11.5 7t-12.5 6.5t-11 4.5 t-12.5 4.5t-11.5 2t-14 1q-22 0 -43.5 -15.5t-31 -27.5t-30.5 -40z" />
<glyph unicode="&#xd2;" horiz-adv-x="1277" d="M123 399v566q0 89 27.5 162t85.5 132t160.5 92t242.5 33t242.5 -33t160.5 -92t85.5 -132t27.5 -162v-566q0 -89 -27.5 -162t-85.5 -132t-160.5 -92t-242.5 -33t-242.5 33t-160.5 92t-85.5 132t-27.5 162zM360 1622l99 152q99 -78 270 -183l-90 -139q-168 88 -279 170z M381 414q0 -102 59.5 -154.5t198.5 -52.5t198.5 52.5t59.5 154.5v536q0 102 -59.5 154.5t-198.5 52.5t-198.5 -52.5t-59.5 -154.5v-536z" />
<glyph unicode="&#xd3;" horiz-adv-x="1277" d="M123 399v566q0 89 27.5 162t85.5 132t160.5 92t242.5 33t242.5 -33t160.5 -92t85.5 -132t27.5 -162v-566q0 -89 -27.5 -162t-85.5 -132t-160.5 -92t-242.5 -33t-242.5 33t-160.5 92t-85.5 132t-27.5 162zM381 414q0 -102 59.5 -154.5t198.5 -52.5t198.5 52.5t59.5 154.5 v536q0 102 -59.5 154.5t-198.5 52.5t-198.5 -52.5t-59.5 -154.5v-536zM512 1591q169 104 272 183l97 -152q-118 -88 -279 -170z" />
<glyph unicode="&#xd4;" horiz-adv-x="1277" d="M123 399v566q0 89 27.5 162t85.5 132t160.5 92t242.5 33t242.5 -33t160.5 -92t85.5 -132t27.5 -162v-566q0 -89 -27.5 -162t-85.5 -132t-160.5 -92t-242.5 -33t-242.5 33t-160.5 92t-85.5 132t-27.5 162zM379 1567q137 92 260 186q125 -95 260 -186l-70 -115 q-92 42 -190 100q-98 -56 -188 -100zM381 414q0 -102 59.5 -154.5t198.5 -52.5t198.5 52.5t59.5 154.5v536q0 102 -59.5 154.5t-198.5 52.5t-198.5 -52.5t-59.5 -154.5v-536z" />
<glyph unicode="&#xd5;" horiz-adv-x="1277" d="M123 399v566q0 89 27.5 162t85.5 132t160.5 92t242.5 33t242.5 -33t160.5 -92t85.5 -132t27.5 -162v-566q0 -89 -27.5 -162t-85.5 -132t-160.5 -92t-242.5 -33t-242.5 33t-160.5 92t-85.5 132t-27.5 162zM307 1556q37 70 90 115t113 45t129 -41q76 -45 106 -45 q31 0 50.5 18.5t33.5 57.5l119 -61q-27 -81 -79.5 -126.5t-123.5 -45.5q-72 0 -131 40q-2 1 -13.5 8.5t-13.5 9t-11.5 7t-12.5 6.5t-11 4.5t-12.5 4.5t-11.5 2t-14 1q-17 0 -31 -6t-30 -23.5t-20.5 -23.5l-22.5 -30zM381 414q0 -102 59.5 -154.5t198.5 -52.5t198.5 52.5 t59.5 154.5v536q0 102 -59.5 154.5t-198.5 52.5t-198.5 -52.5t-59.5 -154.5v-536z" />
<glyph unicode="&#xd6;" horiz-adv-x="1277" d="M123 399v566q0 89 27.5 162t85.5 132t160.5 92t242.5 33t242.5 -33t160.5 -92t85.5 -132t27.5 -162v-566q0 -89 -27.5 -162t-85.5 -132t-160.5 -92t-242.5 -33t-242.5 33t-160.5 92t-85.5 132t-27.5 162zM336 1487v199h209v-199h-209zM381 414q0 -102 59.5 -154.5 t198.5 -52.5t198.5 52.5t59.5 154.5v536q0 102 -59.5 154.5t-198.5 52.5t-198.5 -52.5t-59.5 -154.5v-536zM731 1487v199h209v-199h-209z" />
<glyph unicode="&#xd7;" horiz-adv-x="1013" d="M123 252l239 240l-239 237l145 145l238 -239l239 239l146 -145l-240 -237l240 -240l-146 -146l-239 240l-238 -240z" />
<glyph unicode="&#xd8;" horiz-adv-x="1277" d="M123 -61l104 174q-104 107 -104 286v566q0 89 27.5 162t85.5 132t160.5 92t242.5 33q189 0 311 -61l99 164l106 -62l-104 -176q104 -107 104 -284v-566q0 -89 -27.5 -162t-85.5 -132t-160.5 -92t-242.5 -33q-192 0 -311 61l-99 -164zM381 414q0 -27 2 -39l442 739 q-65 43 -186 43q-139 0 -198.5 -52.5t-59.5 -154.5v-536zM453 250q61 -43 186 -43q139 0 198.5 52.5t59.5 154.5v536q0 27 -2 39z" />
<glyph unicode="&#xd9;" horiz-adv-x="1294" d="M143 395v969h258v-948q0 -104 57 -156.5t189 -52.5t189 52.5t57 156.5v948h258v-969q0 -67 -15.5 -126t-52 -113t-93 -92t-144.5 -61t-199 -23t-199 23t-144.5 61t-93 92t-52 113t-15.5 126zM397 1622l99 152q99 -78 270 -183l-90 -139q-168 88 -279 170z" />
<glyph unicode="&#xda;" horiz-adv-x="1294" d="M143 395v969h258v-948q0 -104 57 -156.5t189 -52.5t189 52.5t57 156.5v948h258v-969q0 -67 -15.5 -126t-52 -113t-93 -92t-144.5 -61t-199 -23t-199 23t-144.5 61t-93 92t-52 113t-15.5 126zM504 1591q169 104 272 183l96 -152q-121 -89 -278 -170z" />
<glyph unicode="&#xdb;" horiz-adv-x="1294" d="M143 395v969h258v-948q0 -104 57 -156.5t189 -52.5t189 52.5t57 156.5v948h258v-969q0 -67 -15.5 -126t-52 -113t-93 -92t-144.5 -61t-199 -23t-199 23t-144.5 61t-93 92t-52 113t-15.5 126zM387 1567q137 92 260 186q125 -95 260 -186l-69 -115q-96 45 -191 100 q-98 -56 -188 -100z" />
<glyph unicode="&#xdc;" horiz-adv-x="1294" d="M143 395v969h258v-948q0 -104 57 -156.5t189 -52.5t189 52.5t57 156.5v948h258v-969q0 -67 -15.5 -126t-52 -113t-93 -92t-144.5 -61t-199 -23t-199 23t-144.5 61t-93 92t-52 113t-15.5 126zM346 1487v199h209v-199h-209zM741 1487v199h209v-199h-209z" />
<glyph unicode="&#xdd;" horiz-adv-x="1159" d="M10 1364h275l295 -688l294 688h275l-440 -969v-395h-258v395zM453 1591q169 104 272 183l96 -152q-121 -89 -278 -170z" />
<glyph unicode="&#xde;" horiz-adv-x="1179" d="M154 0v1364h258v-217h274q230 0 331 -91.5t101 -277.5v-186q0 -183 -106 -275t-338 -92h-262v-225h-258zM412 453h260q106 0 147 38.5t41 126.5v140q0 86 -42 124t-146 38h-260v-467z" />
<glyph unicode="&#xdf;" horiz-adv-x="1253" d="M143 0v1067q0 185 114.5 282t324.5 97q213 0 324.5 -90t111.5 -248q0 -60 -16.5 -114.5t-63.5 -131.5q-49 -80 -62.5 -110.5t-13.5 -55.5q0 -26 23 -57t102 -94q127 -106 155.5 -150t28.5 -141q0 -144 -70 -209t-249 -65q-53 0 -127.5 9.5t-126.5 26.5l29 191 q36 -10 99 -17.5t99 -7.5q55 0 76 16t21 56q0 38 -19 59t-127 107q-103 84 -133.5 134.5t-30.5 129.5q0 50 15 90t59 115q54 93 68 132t14 83q0 62 -47 97.5t-135 35.5q-193 0 -193 -180v-1057h-250z" />
<glyph unicode="&#xe0;" d="M102 276q0 151 68.5 216t222.5 65h240v105q0 86 -37.5 117.5t-153.5 31.5q-124 0 -276 -31l-31 191q152 47 342 47q117 0 195.5 -20.5t125 -66.5t66 -111.5t19.5 -162.5v-657h-205l-19 68q-134 -88 -297 -88q-131 0 -195.5 80t-64.5 216zM268 1292l99 152 q132 -98 299 -201l-93 -139q-130 72 -305 188zM344 279q0 -54 21.5 -77.5t78.5 -23.5q100 0 189 51v148h-184q-61 0 -83 -20.5t-22 -77.5z" />
<glyph unicode="&#xe1;" d="M102 276q0 151 68.5 216t222.5 65h240v105q0 86 -37.5 117.5t-153.5 31.5q-124 0 -276 -31l-31 191q152 47 342 47q117 0 195.5 -20.5t125 -66.5t66 -111.5t19.5 -162.5v-657h-205l-19 68q-134 -88 -297 -88q-131 0 -195.5 80t-64.5 216zM344 279q0 -54 21.5 -77.5 t78.5 -23.5q100 0 189 51v148h-184q-61 0 -83 -20.5t-22 -77.5zM344 1243q151 93 299 201l98 -152q-183 -121 -307 -188z" />
<glyph unicode="&#xe2;" d="M102 276q0 151 68.5 216t222.5 65h240v105q0 86 -37.5 117.5t-153.5 31.5q-124 0 -276 -31l-31 191q152 47 342 47q117 0 195.5 -20.5t125 -66.5t66 -111.5t19.5 -162.5v-657h-205l-19 68q-134 -88 -297 -88q-131 0 -195.5 80t-64.5 216zM231 1202q157 115 287 223 q142 -117 285 -223l-78 -110q-96 55 -207 133q-100 -70 -207 -133zM344 279q0 -54 21.5 -77.5t78.5 -23.5q100 0 189 51v148h-184q-61 0 -83 -20.5t-22 -77.5z" />
<glyph unicode="&#xe3;" d="M102 276q0 151 68.5 216t222.5 65h240v105q0 86 -37.5 117.5t-153.5 31.5q-124 0 -276 -31l-31 191q152 47 342 47q117 0 195.5 -20.5t125 -66.5t66 -111.5t19.5 -162.5v-657h-205l-19 68q-134 -88 -297 -88q-131 0 -195.5 80t-64.5 216zM188 1206q38 68 90.5 113 t112.5 45q64 0 129 -41q73 -43 107 -43q31 0 50.5 18.5t33.5 57.5l118 -62q-27 -81 -79 -126.5t-123 -45.5q-69 0 -131 39q-34 24 -55 33.5t-46 9.5q-10 0 -19 -2t-18 -8.5t-15 -10.5t-15 -14.5t-12.5 -14.5t-13 -17t-11.5 -15zM344 279q0 -54 21.5 -77.5t78.5 -23.5 q100 0 189 51v148h-184q-61 0 -83 -20.5t-22 -77.5z" />
<glyph unicode="&#xe4;" d="M102 276q0 151 68.5 216t222.5 65h240v105q0 86 -37.5 117.5t-153.5 31.5q-124 0 -276 -31l-31 191q152 47 342 47q117 0 195.5 -20.5t125 -66.5t66 -111.5t19.5 -162.5v-657h-205l-19 68q-134 -88 -297 -88q-131 0 -195.5 80t-64.5 216zM221 1135v215h207v-215h-207z M344 279q0 -54 21.5 -77.5t78.5 -23.5q100 0 189 51v148h-184q-61 0 -83 -20.5t-22 -77.5zM608 1135v215h207v-215h-207z" />
<glyph unicode="&#xe5;" d="M102 276q0 151 68.5 216t222.5 65h240v105q0 86 -37.5 117.5t-153.5 31.5q-124 0 -276 -31l-31 191q152 47 342 47q117 0 195.5 -20.5t125 -66.5t66 -111.5t19.5 -162.5v-657h-205l-19 68q-134 -88 -297 -88q-131 0 -195.5 80t-64.5 216zM322 1270q0 75 48.5 124.5 t133.5 49.5q86 0 134 -49.5t48 -124.5q0 -76 -48 -126t-134 -50t-134 48.5t-48 127.5zM344 279q0 -54 21.5 -77.5t78.5 -23.5q100 0 189 51v148h-184q-61 0 -83 -20.5t-22 -77.5zM430 1270q0 -36 20.5 -58t53.5 -22t53.5 22t20.5 58q0 35 -20 56.5t-54 21.5t-54 -21.5 t-20 -56.5z" />
<glyph unicode="&#xe6;" horiz-adv-x="1519" d="M102 276q0 151 68.5 216t222.5 65h240v105q0 86 -37.5 117.5t-153.5 31.5q-124 0 -276 -31l-31 191q152 47 342 47q97 0 164.5 -23t132.5 -69q128 92 273 92q93 0 163 -21.5t113 -57.5t69 -89t36 -109t10 -125v-213h-555v-51q0 -93 41 -130.5t153 -37.5q150 0 305 47 l39 -188q-166 -63 -366 -63q-225 0 -328 100q-158 -100 -342 -100q-143 0 -213 80t-70 216zM344 279q0 -54 21.5 -77.5t78.5 -23.5q109 0 201 53q-12 58 -12 134v12h-184q-61 0 -83 -20.5t-22 -77.5zM883 604h317v49q0 78 -32.5 119t-118.5 41q-166 0 -166 -160v-49z" />
<glyph unicode="&#xe7;" horiz-adv-x="858" d="M98 362v273q0 203 99 293t331 90q134 0 244 -37l-31 -205q-102 27 -206 27q-106 0 -146.5 -36.5t-40.5 -129.5v-277q0 -93 40 -129t147 -36q102 0 206 26l31 -205q-103 -36 -244 -36h-6l-16 -89q40 5 57 5q71 1 108.5 -37.5t37.5 -102.5q0 -77 -55 -121.5t-165 -44.5 q-89 0 -170 31l21 96q63 -18 133 -18q59 0 79.5 14t20.5 45q0 27 -17.5 38t-59.5 11q-28 0 -64 -4l-59 29l33 156q-164 20 -236 109.5t-72 264.5z" />
<glyph unicode="&#xe8;" horiz-adv-x="985" d="M98 365v264q0 84 20.5 150.5t66 122t128.5 86t199 30.5q93 0 163 -21.5t113 -57.5t69 -89t36 -109t10 -125v-213h-555v-51q0 -93 41.5 -130.5t153.5 -37.5q150 0 305 47l39 -188q-166 -63 -367 -63q-226 0 -324 98t-98 287zM246 1292l98 152q132 -98 299 -201l-92 -139 q-130 72 -305 188zM348 604h318v49q0 78 -33 119t-119 41q-166 0 -166 -160v-49z" />
<glyph unicode="&#xe9;" horiz-adv-x="985" d="M98 365v264q0 84 20.5 150.5t66 122t128.5 86t199 30.5q93 0 163 -21.5t113 -57.5t69 -89t36 -109t10 -125v-213h-555v-51q0 -93 41.5 -130.5t153.5 -37.5q150 0 305 47l39 -188q-166 -63 -367 -63q-226 0 -324 98t-98 287zM338 1243q151 93 299 201l98 -152 q-183 -121 -307 -188zM348 604h318v49q0 78 -33 119t-119 41q-166 0 -166 -160v-49z" />
<glyph unicode="&#xea;" horiz-adv-x="985" d="M98 365v264q0 84 20.5 150.5t66 122t128.5 86t199 30.5q93 0 163 -21.5t113 -57.5t69 -89t36 -109t10 -125v-213h-555v-51q0 -93 41.5 -130.5t153.5 -37.5q150 0 305 47l39 -188q-166 -63 -367 -63q-226 0 -324 98t-98 287zM223 1202q157 115 287 223q142 -117 285 -223 l-78 -110q-96 55 -207 133q-100 -70 -207 -133zM348 604h318v49q0 78 -33 119t-119 41q-166 0 -166 -160v-49z" />
<glyph unicode="&#xeb;" horiz-adv-x="985" d="M98 365v264q0 84 20.5 150.5t66 122t128.5 86t199 30.5q93 0 163 -21.5t113 -57.5t69 -89t36 -109t10 -125v-213h-555v-51q0 -93 41.5 -130.5t153.5 -37.5q150 0 305 47l39 -188q-166 -63 -367 -63q-226 0 -324 98t-98 287zM217 1135v215h207v-215h-207zM348 604h318v49 q0 78 -33 119t-119 41q-166 0 -166 -160v-49zM604 1135v215h207v-215h-207z" />
<glyph unicode="&#xec;" horiz-adv-x="536" d="M-25 1292l99 152q132 -98 299 -201l-92 -139q-136 76 -306 188zM143 0v997h250v-997h-250z" />
<glyph unicode="&#xed;" horiz-adv-x="536" d="M143 0v997h250v-997h-250zM170 1243q151 93 299 201l98 -152q-183 -121 -307 -188z" />
<glyph unicode="&#xee;" horiz-adv-x="536" d="M-16 1202q148 109 286 223q142 -117 285 -223l-78 -110q-96 55 -207 133q-100 -70 -207 -133zM143 0v997h250v-997h-250z" />
<glyph unicode="&#xef;" horiz-adv-x="536" d="M-29 1135v215h207v-215h-207zM143 0v997h250v-997h-250zM358 1135v215h207v-215h-207z" />
<glyph unicode="&#xf0;" horiz-adv-x="1032" d="M102 322v143q0 193 76 284t262 91q109 0 217 -43q-1 94 -30.5 156.5t-89.5 111.5l-168 -131l-78 90l137 109q-78 37 -227 73l43 197q208 -35 356 -119l119 92l78 -88l-95 -74q109 -91 158 -197t49 -288v-387q0 -65 -10 -116.5t-37.5 -99t-71.5 -78.5t-115.5 -49.5 t-166.5 -18.5q-97 0 -169 16.5t-117 44.5t-72 72.5t-37.5 94t-10.5 114.5zM348 340q0 -86 31 -116.5t125 -30.5q93 0 124 33t31 130v224q-84 47 -182 47q-66 0 -97.5 -30.5t-31.5 -100.5v-156z" />
<glyph unicode="&#xf1;" horiz-adv-x="1116" d="M143 0v997h191l24 -84q96 47 205 76t195 29q225 0 225 -295v-723h-250v696q0 80 -80 80q-45 0 -118 -24t-142 -60v-692h-250zM240 1206q38 69 90 113.5t112 44.5q64 0 129 -41q73 -43 107 -43q31 0 50.5 18.5t33.5 57.5l119 -62q-27 -81 -79.5 -126.5t-123.5 -45.5 q-69 0 -131 39q-34 24 -55 33.5t-46 9.5q-10 0 -19 -2t-18 -8.5t-15 -10.5t-15 -14.5t-12.5 -14.5t-13 -17t-11.5 -15z" />
<glyph unicode="&#xf2;" horiz-adv-x="1064" d="M98 373v252q0 65 12 120t42.5 106.5t78.5 87.5t125 57.5t176 21.5q123 0 211 -31.5t135.5 -89t68 -124t20.5 -148.5v-252q0 -82 -20.5 -148.5t-68 -124t-135.5 -89t-211 -31.5q-99 0 -176 21.5t-125 57.5t-78.5 87.5t-42.5 106.5t-12 120zM260 1292l98 152 q132 -98 299 -201l-92 -139q-130 72 -305 188zM348 365q0 -87 43.5 -129.5t140.5 -42.5q98 0 141.5 42.5t43.5 129.5v268q0 87 -43.5 129.5t-141.5 42.5q-97 0 -140.5 -42.5t-43.5 -129.5v-268z" />
<glyph unicode="&#xf3;" horiz-adv-x="1064" d="M98 373v252q0 65 12 120t42.5 106.5t78.5 87.5t125 57.5t176 21.5q123 0 211 -31.5t135.5 -89t68 -124t20.5 -148.5v-252q0 -82 -20.5 -148.5t-68 -124t-135.5 -89t-211 -31.5q-99 0 -176 21.5t-125 57.5t-78.5 87.5t-42.5 106.5t-12 120zM348 365q0 -87 43.5 -129.5 t140.5 -42.5q98 0 141.5 42.5t43.5 129.5v268q0 87 -43.5 129.5t-141.5 42.5q-97 0 -140.5 -42.5t-43.5 -129.5v-268zM391 1243q151 93 299 201l98 -152q-183 -121 -307 -188z" />
<glyph unicode="&#xf4;" horiz-adv-x="1064" d="M98 373v252q0 65 12 120t42.5 106.5t78.5 87.5t125 57.5t176 21.5q123 0 211 -31.5t135.5 -89t68 -124t20.5 -148.5v-252q0 -82 -20.5 -148.5t-68 -124t-135.5 -89t-211 -31.5q-99 0 -176 21.5t-125 57.5t-78.5 87.5t-42.5 106.5t-12 120zM248 1202q157 115 287 223 q151 -124 284 -223l-78 -110q-90 52 -206 133q-100 -70 -207 -133zM348 365q0 -87 43.5 -129.5t140.5 -42.5q98 0 141.5 42.5t43.5 129.5v268q0 87 -43.5 129.5t-141.5 42.5q-97 0 -140.5 -42.5t-43.5 -129.5v-268z" />
<glyph unicode="&#xf5;" horiz-adv-x="1064" d="M98 373v252q0 65 12 120t42.5 106.5t78.5 87.5t125 57.5t176 21.5q123 0 211 -31.5t135.5 -89t68 -124t20.5 -148.5v-252q0 -82 -20.5 -148.5t-68 -124t-135.5 -89t-211 -31.5q-99 0 -176 21.5t-125 57.5t-78.5 87.5t-42.5 106.5t-12 120zM215 1206q38 68 90.5 113 t112.5 45q64 0 129 -41q73 -43 106 -43q31 0 50.5 18.5t33.5 57.5l119 -62q-27 -81 -79.5 -126.5t-123.5 -45.5q-69 0 -131 39q-24 16 -36 23.5t-29 13.5t-35 6q-9 0 -17.5 -2.5t-15 -5t-14.5 -9.5t-12.5 -10.5t-13 -13.5t-11 -13t-11.5 -14.5t-10 -13.5zM348 365 q0 -87 43.5 -129.5t140.5 -42.5q98 0 141.5 42.5t43.5 129.5v268q0 87 -43.5 129.5t-141.5 42.5q-97 0 -140.5 -42.5t-43.5 -129.5v-268z" />
<glyph unicode="&#xf6;" horiz-adv-x="1064" d="M98 373v252q0 65 12 120t42.5 106.5t78.5 87.5t125 57.5t176 21.5q123 0 211 -31.5t135.5 -89t68 -124t20.5 -148.5v-252q0 -82 -20.5 -148.5t-68 -124t-135.5 -89t-211 -31.5q-99 0 -176 21.5t-125 57.5t-78.5 87.5t-42.5 106.5t-12 120zM236 1135v215h206v-215h-206z M348 365q0 -87 43.5 -129.5t140.5 -42.5q98 0 141.5 42.5t43.5 129.5v268q0 87 -43.5 129.5t-141.5 42.5q-97 0 -140.5 -42.5t-43.5 -129.5v-268zM623 1135v215h206v-215h-206z" />
<glyph unicode="&#xf7;" horiz-adv-x="1110" d="M133 416v168h844v-168h-844zM436 23v247h238v-247h-238zM436 727v248h238v-248h-238z" />
<glyph unicode="&#xf8;" horiz-adv-x="1064" d="M98 -45l95 137q-95 100 -95 281v252q0 65 12 120t42.5 106.5t78.5 87.5t125 57.5t176 21.5q157 0 254 -51l91 131l88 -58l-95 -137q97 -100 97 -278v-252q0 -82 -20.5 -148.5t-68 -124t-135.5 -89t-211 -31.5q-159 0 -256 51l-90 -133zM348 365q0 -29 2 -41l307 450 q-45 31 -125 31q-97 0 -140.5 -42.5t-43.5 -129.5v-268zM408 221q45 -28 124 -28q98 0 141.5 42.5t43.5 129.5v268q0 29 -2 41z" />
<glyph unicode="&#xf9;" horiz-adv-x="1116" d="M133 274v723h250v-696q0 -80 80 -80q45 0 118 24t142 60v692h250v-997h-191l-24 84q-95 -46 -204.5 -75t-195.5 -29q-225 0 -225 294zM287 1292l98 152q132 -98 299 -201l-92 -139q-130 72 -305 188z" />
<glyph unicode="&#xfa;" horiz-adv-x="1116" d="M133 274v723h250v-696q0 -80 80 -80q45 0 118 24t142 60v692h250v-997h-191l-24 84q-95 -46 -204.5 -75t-195.5 -29q-225 0 -225 294zM418 1243q151 93 299 201l98 -152q-183 -121 -307 -188z" />
<glyph unicode="&#xfb;" horiz-adv-x="1116" d="M133 274v723h250v-696q0 -80 80 -80q45 0 118 24t142 60v692h250v-997h-191l-24 84q-95 -46 -204.5 -75t-195.5 -29q-225 0 -225 294zM274 1202q157 115 287 223q142 -117 285 -223l-78 -110q-96 55 -207 133q-100 -70 -207 -133z" />
<glyph unicode="&#xfc;" horiz-adv-x="1116" d="M133 274v723h250v-696q0 -80 80 -80q45 0 118 24t142 60v692h250v-997h-191l-24 84q-95 -46 -204.5 -75t-195.5 -29q-225 0 -225 294zM268 1135v215h207v-215h-207zM655 1135v215h207v-215h-207z" />
<glyph unicode="&#xfd;" horiz-adv-x="978" d="M10 997h256l228 -757l229 757h256l-320 -997l-133 -403h-237l125 403h-88zM379 1243q151 93 299 201l98 -152q-183 -121 -307 -188z" />
<glyph unicode="&#xfe;" horiz-adv-x="1091" d="M143 -438v1843l250 35v-504q122 82 289 82q151 0 229 -88t78 -258v-340q0 -352 -330 -352q-129 0 -266 28v-411zM393 219q123 -26 221 -26q66 0 95.5 32t29.5 101v352q0 64 -28 95.5t-95 31.5q-58 0 -118.5 -26.5t-104.5 -63.5v-496z" />
<glyph unicode="&#xff;" horiz-adv-x="978" d="M10 997h256l228 -757l229 757h256l-320 -997l-133 -403h-237l125 403h-88zM188 1135v215h207v-215h-207zM575 1135v215h207v-215h-207z" />
<glyph unicode="&#x152;" horiz-adv-x="1835" d="M123 420v524q0 71 16.5 131.5t54.5 114.5t96.5 92t147.5 60t201 22h1083v-227h-577v-330h532v-227h-532v-353h577v-227h-1083q-112 0 -201 22t-147.5 60t-96.5 92t-54.5 114.5t-16.5 131.5zM381 434q0 -102 59.5 -154.5t198.5 -52.5h248v910h-248q-139 0 -198.5 -52.5 t-59.5 -154.5v-496z" />
<glyph unicode="&#x153;" horiz-adv-x="1603" d="M98 373v252q0 65 12 120t42.5 106.5t78.5 87.5t125 57.5t176 21.5q95 0 166 -25t140 -75q121 100 292 100q93 0 163 -21.5t113 -57.5t69.5 -89t36.5 -109t10 -125v-213h-555v-51q0 -93 41 -130.5t153 -37.5q150 0 305 47l39 -188q-166 -63 -366 -63q-190 0 -305 96 q-117 -96 -302 -96q-99 0 -176 21.5t-125 57.5t-78.5 87.5t-42.5 106.5t-12 120zM348 365q0 -87 43.5 -129.5t140.5 -42.5q93 0 136.5 38.5t48.5 116.5v285q0 87 -43.5 129.5t-141.5 42.5q-97 0 -140.5 -42.5t-43.5 -129.5v-268zM967 604h317v49q0 78 -32.5 119t-118.5 41 q-166 0 -166 -160v-49z" />
<glyph unicode="&#x178;" horiz-adv-x="1159" d="M10 1364h275l295 -688l294 688h275l-440 -969v-395h-258v395zM264 1487v199h209v-199h-209zM659 1487v199h209v-199h-209z" />
<glyph unicode="&#x2c6;" horiz-adv-x="796" d="M113 1202q148 109 286 223q142 -117 285 -223l-78 -110q-96 55 -207 133q-105 -74 -206 -133z" />
<glyph unicode="&#x2dc;" horiz-adv-x="866" d="M113 1206q38 69 90 113.5t112 44.5q64 0 129 -41q73 -43 107 -43q31 0 50.5 18.5t33.5 57.5l119 -62q-27 -81 -79.5 -126.5t-123.5 -45.5q-69 0 -131 39q-34 24 -55 33.5t-46 9.5q-10 0 -19 -2t-18 -8.5t-15 -10.5t-15 -14.5t-12.5 -14.5t-13 -17t-11.5 -15z" />
<glyph unicode="&#x2000;" horiz-adv-x="887" />
<glyph unicode="&#x2001;" horiz-adv-x="1774" />
<glyph unicode="&#x2002;" horiz-adv-x="887" />
<glyph unicode="&#x2003;" horiz-adv-x="1774" />
<glyph unicode="&#x2004;" horiz-adv-x="591" />
<glyph unicode="&#x2005;" horiz-adv-x="443" />
<glyph unicode="&#x2006;" horiz-adv-x="295" />
<glyph unicode="&#x2007;" horiz-adv-x="295" />
<glyph unicode="&#x2008;" horiz-adv-x="221" />
<glyph unicode="&#x2009;" horiz-adv-x="354" />
<glyph unicode="&#x200a;" horiz-adv-x="98" />
<glyph unicode="&#x2010;" horiz-adv-x="761" d="M123 469v209h516v-209h-516z" />
<glyph unicode="&#x2011;" horiz-adv-x="761" d="M123 469v209h516v-209h-516z" />
<glyph unicode="&#x2012;" horiz-adv-x="761" d="M123 469v209h516v-209h-516z" />
<glyph unicode="&#x2013;" horiz-adv-x="1024" d="M133 469v209h758v-209h-758z" />
<glyph unicode="&#x2014;" horiz-adv-x="1320" d="M133 469v209h1055v-209h-1055z" />
<glyph unicode="&#x2018;" horiz-adv-x="561" d="M154 868v303l159 269l115 -64l-115 -221h95v-287h-254z" />
<glyph unicode="&#x2019;" horiz-adv-x="540" d="M133 897l115 221h-94v287h254v-303l-160 -268z" />
<glyph unicode="&#x201a;" horiz-adv-x="561" d="M133 -221l115 221h-94v287h254v-303l-160 -269z" />
<glyph unicode="&#x201c;" horiz-adv-x="970" d="M154 868v303l159 269l115 -64l-115 -221h95v-287h-254zM563 868v303l160 269l115 -64l-115 -221h94v-287h-254z" />
<glyph unicode="&#x201d;" horiz-adv-x="970" d="M133 897l115 221h-94v287h254v-303l-160 -268zM543 897l114 221h-94v287h254v-303l-160 -268z" />
<glyph unicode="&#x201e;" horiz-adv-x="970" d="M133 -221l115 221h-94v287h254v-303l-160 -269zM543 -221l114 221h-94v287h254v-303l-160 -269z" />
<glyph unicode="&#x2022;" horiz-adv-x="755" d="M113 662q0 110 77.5 188t186.5 78q110 0 188 -78t78 -188q0 -109 -78 -187t-188 -78q-109 0 -186.5 78t-77.5 187z" />
<glyph unicode="&#x2026;" horiz-adv-x="1683" d="M154 0v287h254v-287h-254zM715 0v287h254v-287h-254zM1276 0v287h254v-287h-254z" />
<glyph unicode="&#x202f;" horiz-adv-x="354" />
<glyph unicode="&#x2039;" horiz-adv-x="610" d="M72 500l260 395l166 -104l-191 -291l191 -291l-166 -105z" />
<glyph unicode="&#x203a;" horiz-adv-x="610" d="M113 209l190 291l-190 291l166 104l260 -395l-260 -396z" />
<glyph unicode="&#x205f;" horiz-adv-x="443" />
<glyph unicode="&#x20ac;" horiz-adv-x="1101" d="M61 444v140h150v168h-150v139h150v67q0 191 117.5 288t367.5 97q166 0 314 -38l-29 -213q-155 28 -276 28q-138 0 -187 -47t-49 -160v-22h412v-139h-412v-168h412v-140h-412v-34q0 -113 49 -160t187 -47q121 0 276 28l29 -213q-148 -38 -314 -38q-250 0 -367.5 97 t-117.5 288v79h-150z" />
<glyph unicode="&#x2122;" horiz-adv-x="1026" d="M102 1282v82h320v-82h-115v-336h-90v336h-115zM494 946l14 418h94l100 -268l103 268h92l16 -418h-88l-4 242l-73 -191h-91l-71 189l-6 -240h-86z" />
<glyph unicode="&#x25fc;" horiz-adv-x="993" d="M0 0v993h993v-993h-993z" />
</font>
</defs>
</svg>
